<svg xmlns="http://www.w3.org/2000/svg">
<defs>
<font id="TodaySansNowPro-Regular" horiz-adv-x="1024" >
  <font-face 
    font-family="TodaySansNow Pro Regular"
    font-weight="400"
    font-stretch="normal"
    units-per-em="2048"
    panose-1="2 0 4 2 1 0 0 1 0 2"
    ascent="1536"
    descent="-512"
    x-height="926"
    cap-height="1366"
    bbox="-315 -539 2474 1876"
    underline-thickness="40"
    underline-position="-421"
    unicode-range="U+0020-FE6A"
  />
<missing-glyph horiz-adv-x="1019" 
d="M901 0h-780v1366h780v-1366zM227 1264v-1160h568v1160h-568z" />
    <glyph glyph-name="IJ" unicode="IJ" horiz-adv-x="1267" 
d="M340 0h-180v1366h180v-1366zM1116 1366v-1010q0 -197 -96 -293q-90 -90 -266 -90q-130 0 -244 58l31 149q96 -47 188 -47q47 0 82 10.5t57 33t36 47t20 63t8 69.5t2 78v932h182z" />
    <glyph glyph-name="ij" unicode="ij" horiz-adv-x="888" 
d="M330 1235q0 -46 -29 -76.5t-76 -30.5t-77.5 30t-30.5 77t30.5 76.5t77.5 29.5q46 0 75.5 -30t29.5 -76zM307 0h-172v926h172v-926zM752 926v-994q0 -87 -9 -151.5t-33.5 -122t-65.5 -93.5t-107 -56.5t-156 -20.5q-19 0 -42 2t-37 4l-13 2l22 127q31 -6 68 -6
q52 0 90 16.5t59.5 42t34 68t16 83.5t3.5 99v1000h170zM776 1239q0 -46 -29 -76t-75 -30q-49 0 -79 29.5t-30 76.5t31 77t78 30q45 0 74.5 -30.5t29.5 -76.5z" />
    <glyph glyph-name="numero" unicode="No&#x2e;" horiz-adv-x="2281" 
d="M1233 -18l-723 858l-184 217q2 -151 2 -307v-750h-166v1356l106 28l715 -845l186 -224v1051h164v-1354zM1835 793q-131 0 -216 80t-85 212q0 130 86.5 214.5t216.5 84.5q129 0 213 -83.5t84 -213.5q0 -128 -84.5 -211t-214.5 -83zM2005 1079q0 82 -48 140.5t-128 58.5
q-77 0 -122.5 -50.5t-45.5 -127.5q0 -85 48.5 -143t131.5 -58q79 0 121.5 50.5t42.5 129.5zM2126 629v-99h-586v99h586z" />
    <glyph glyph-name="fi" unicode="fi" horiz-adv-x="1087" 
d="M969 1235q0 -46 -29 -76.5t-76 -30.5t-77.5 30t-30.5 77t30.5 76.5t77.5 29.5q46 0 75.5 -30t29.5 -76zM946 0h-172v926h172v-926zM713 1462l-23 -129q-30 6 -65 6q-65 0 -112 -15.5t-74 -40t-42.5 -66t-20.5 -83.5t-5 -102v-106h252v-127h-250v-799h-168v799h-193v127
h193v139q0 182 105 296t298 114q48 0 105 -13z" />
    <glyph glyph-name="fl" unicode="fl" horiz-adv-x="1087" 
d="M948 0h-170v1448h170v-1448zM713 1462l-23 -129q-30 6 -65 6q-65 0 -112 -15.5t-74 -40t-42.5 -66t-20.5 -83.5t-5 -102v-106h252v-127h-250v-799h-168v799h-193v127h193v139q0 182 105 296t298 114q48 0 105 -13z" />
    <glyph glyph-name=".notdef" horiz-adv-x="1019" 
d="M901 0h-780v1366h780v-1366zM227 1264v-1160h568v1160h-568z" />
    <glyph glyph-name=".null" horiz-adv-x="0" 
 />
    <glyph glyph-name="nonmarkingreturn" horiz-adv-x="682" 
 />
    <glyph glyph-name="space" unicode=" " horiz-adv-x="442" 
 />
    <glyph glyph-name="exclam" unicode="!" horiz-adv-x="544" 
d="M397 1366l-35 -1034h-122l-41 1034h198zM418 90q0 -49 -31.5 -78.5t-81.5 -29.5q-47 0 -77.5 30.5t-30.5 77.5q0 51 29.5 82t78.5 31q51 0 82 -31t31 -82z" />
    <glyph glyph-name="quotedbl" unicode="&#x22;" horiz-adv-x="770" 
d="M631 1366l-17 -545h-120l-17 545h154zM293 1366l-17 -545h-120l-17 545h154z" />
    <glyph glyph-name="numbersign" unicode="#" horiz-adv-x="1101" 
d="M104 829l17 101h217l68 420h120l-67 -420h266l68 420h122l-67 -420h215l-14 -101h-218l-45 -282h218l-17 -103h-217l-70 -444h-120l69 444h-268l-70 -444h-118l69 444h-217l16 103h218l45 282h-220zM442 829l-45 -282h269l45 282h-269z" />
    <glyph glyph-name="dollar" unicode="$" horiz-adv-x="1101" 
d="M496 811v350q-76 -14 -123 -58t-47 -112q0 -59 44 -100.5t126 -79.5zM614 573v-409q87 16 139 67t52 134q0 70 -49.5 118t-141.5 90zM614 1167v-407q50 -21 78 -33t73.5 -35.5t72 -42.5t59 -48.5t50 -59.5t30 -70.5t12.5 -85.5q0 -143 -105.5 -244t-269.5 -125v-202h-118
v198q-125 6 -220 38.5t-194 99.5l31 161q180 -139 383 -153v465q-45 18 -73.5 31t-69 34t-66 39.5t-54 45.5t-45 55.5t-27.5 65.5t-11 79q0 130 100 224t246 112v182h118v-178q191 -11 334 -111l-67 -135q-136 90 -267 100z" />
    <glyph glyph-name="percent" unicode="%" horiz-adv-x="1818" 
d="M1704 399q0 -105 -39 -194.5t-120 -147t-189 -57.5q-157 0 -250.5 110.5t-93.5 270.5q0 170 96 286.5t260 116.5q104 0 182 -55t116 -141t38 -189zM1249 1343l-553 -1343h-127l553 1343h127zM807 958q0 -107 -38.5 -196t-119.5 -146t-190 -57q-159 0 -251.5 109.5
t-92.5 271.5q0 109 40.5 200t123.5 148.5t194 57.5q78 0 142.5 -32.5t105.5 -87t63.5 -124t22.5 -144.5zM1556 381q0 50 -11.5 99t-34.5 93t-63.5 71.5t-92.5 27.5q-98 0 -149.5 -78.5t-51.5 -183.5q0 -51 12 -101t35.5 -94.5t66 -72t97.5 -27.5q42 0 75.5 16t55 42
t35.5 61.5t20 71.5t6 75zM659 938q0 50 -11.5 99t-34 94t-63.5 72.5t-93 27.5q-99 0 -149 -78t-50 -184q0 -52 11.5 -102t35 -94.5t65.5 -71.5t97 -27q52 0 91 23.5t60 63t31 84t10 93.5z" />
    <glyph glyph-name="ampersand" unicode="&#x26;" horiz-adv-x="2168" 
d="M1958 811h-217q-14 -244 -109.5 -430.5t-273 -295t-414.5 -108.5q-200 0 -363.5 87.5t-258.5 247t-95 360.5q0 155 66.5 285.5t191 209t281.5 78.5q152 0 268 -77.5t183 -217.5v-119l-713 -448q79 -122 201.5 -187t271.5 -65q141 0 253.5 54.5t183.5 149t110.5 215.5
t44.5 261h-228v152h617v-152zM1071 895q-46 98 -127.5 151.5t-187.5 53.5q-110 0 -193.5 -57t-125.5 -148t-42 -199q0 -86 39 -200z" />
    <glyph glyph-name="quotesingle" unicode="'" horiz-adv-x="432" 
d="M293 1366l-17 -545h-120l-17 545h154z" />
    <glyph glyph-name="parenleft" unicode="(" horiz-adv-x="641" 
d="M561 -354l-121 -52q-13 15 -34 44t-75.5 125t-96 198.5t-75.5 260t-34 315.5q0 114 17.5 228t45 204.5t61 173.5t67.5 142.5t61.5 104.5t44.5 67l18 22l113 -56q-11 -13 -28.5 -38.5t-63 -112t-80.5 -182t-63.5 -246t-28.5 -307.5q0 -152 28 -299.5t68 -250t80 -183
t68 -119.5z" />
    <glyph glyph-name="parenright" unicode=")" horiz-adv-x="641" 
d="M199 -406l-119 52q11 14 29.5 41t65.5 116t82.5 186t65 246.5t29.5 301.5q0 157 -27 305.5t-66 249t-78 179t-66 115.5l-27 37l111 56q7 -8 18 -23t44 -65.5t63 -105.5t66.5 -141.5t63 -175t44.5 -203t18 -228.5q0 -115 -17.5 -229.5t-45.5 -205t-61.5 -173.5
t-67.5 -142.5t-62 -104t-46 -66.5z" />
    <glyph glyph-name="asterisk" unicode="*" horiz-adv-x="866" 
d="M793 1235l-277 -88l176 -225l-96 -68l-164 242l-160 -242l-96 68l172 225l-274 88l37 115l272 -105l-10 291h121l-13 -291l273 105z" />
    <glyph glyph-name="plus" unicode="+" horiz-adv-x="1101" 
d="M487 57v344h-340v121h340v342h129v-342h338v-121h-338v-344h-129z" />
    <glyph glyph-name="comma" unicode="," horiz-adv-x="421" 
d="M328 236q-38 -295 -211 -551l-131 26q162 282 198 539z" />
    <glyph glyph-name="hyphen" unicode="-" horiz-adv-x="641" 
d="M565 569l-16 -145h-473l16 145h473z" />
    <glyph glyph-name="hyphen" unicode="&#xad;" horiz-adv-x="641" 
d="M565 569l-16 -145h-473l16 145h473z" />
    <glyph glyph-name="period" unicode="." horiz-adv-x="397" 
d="M305 88q0 -47 -30.5 -76.5t-77.5 -29.5q-46 0 -76.5 29.5t-30.5 76.5q0 49 29.5 79t77.5 30q49 0 78.5 -29.5t29.5 -79.5z" />
    <glyph glyph-name="slash" unicode="/" horiz-adv-x="958" 
d="M887 1487l-813 -1888h-135l813 1888h135z" />
    <glyph glyph-name="zero" unicode="0" horiz-adv-x="1101" 
d="M1018 668q0 -78 -9.5 -154.5t-30 -156.5t-57 -147.5t-86.5 -121.5t-123.5 -84.5t-162.5 -30.5q-106 0 -189.5 43t-133.5 110.5t-82.5 159.5t-45 181.5t-12.5 185.5q0 80 10.5 158.5t32.5 159t60.5 147.5t90.5 120.5t126.5 83.5t164.5 30q100 0 179.5 -44.5t128.5 -114.5
t81.5 -162.5t45 -182t12.5 -180.5zM836 659q0 59 -7 124t-26.5 142t-50 136.5t-83.5 100t-120 40.5q-69 0 -122 -37.5t-82.5 -92.5t-48 -129.5t-24.5 -135.5t-6 -123q0 -44 3 -89t11 -102t21.5 -107t36.5 -99t52.5 -84t73.5 -56.5t97 -21.5q57 0 103 27t75 74t49 101t30 118
t14 114t4 100z" />
    <glyph glyph-name="one" unicode="1" horiz-adv-x="1101" 
d="M750 0h-175v1124q-168 -127 -339 -213l-64 113q219 115 520 326l58 -29v-1321z" />
    <glyph glyph-name="two" unicode="2" horiz-adv-x="1101" 
d="M1016 150l-31 -150h-883l-22 90q189 176 362 361q18 19 66.5 68.5t77 80t70.5 81.5t65 90.5t41 89.5t18 95q0 114 -69.5 177t-192.5 63q-146 0 -301 -135l-74 115q62 67 171 121.5t233 54.5q187 0 301.5 -105t114.5 -276q0 -35 -6 -69t-22 -70.5t-28 -63.5t-41 -66
t-43 -59t-51.5 -61t-48.5 -53.5t-53 -55.5t-47 -49q-113 -118 -283 -274h676z" />
    <glyph glyph-name="three" unicode="3" horiz-adv-x="1101" 
d="M987 369q0 -121 -65 -213t-167.5 -137.5t-222.5 -45.5q-245 0 -419 160l77 119q140 -137 326 -137q119 0 199 66t80 184q0 121 -86.5 187t-219.5 66h-145v132h227q7 2 19.5 6.5t43.5 23t55 42.5t43.5 67.5t19.5 95.5q0 101 -72 160t-176 59q-140 0 -254 -114l-78 110
q165 152 373 152q103 0 189 -38t141 -116.5t55 -183.5q0 -194 -201 -305q125 -40 191.5 -126.5t66.5 -213.5z" />
    <glyph glyph-name="four" unicode="4" horiz-adv-x="1101" 
d="M1065 508l-18 -133h-201v-375h-170v375h-608l-31 121l708 856l101 -27v-817h219zM678 508v573l-469 -573h469z" />
    <glyph glyph-name="five" unicode="5" horiz-adv-x="1101" 
d="M975 420q0 -201 -136.5 -324t-340.5 -123q-210 0 -371 109l59 131q140 -96 295 -96q135 0 222.5 82.5t87.5 216.5q0 75 -30 133t-79.5 93t-118.5 56.5t-142 28t-155 2.5l101 596h577v-149h-436l-57 -324q106 -1 197 -25.5t166 -74t118 -135t43 -197.5z" />
    <glyph glyph-name="six" unicode="6" horiz-adv-x="1101" 
d="M1010 422q0 -197 -129 -323t-326 -126q-111 0 -200.5 41.5t-146 113.5t-86.5 166t-30 202q0 156 55.5 298t153.5 252.5t223.5 195t272.5 140.5l112 -98q-217 -79 -379.5 -229t-218.5 -355q67 71 135.5 105.5t161.5 34.5q178 0 290 -119.5t112 -298.5zM838 412
q0 120 -72.5 207.5t-190.5 87.5q-95 0 -167 -45.5t-136 -131.5q-6 -34 -6 -69q0 -85 33 -162t100.5 -128.5t155.5 -51.5q131 0 207 81t76 212z" />
    <glyph glyph-name="seven" unicode="7" horiz-adv-x="1101" 
d="M1042 1249q-315 -606 -614 -1274l-180 43q304 651 583 1158h-696v149h877z" />
    <glyph glyph-name="eight" unicode="8" horiz-adv-x="1101" 
d="M1006 354q0 -121 -66.5 -209.5t-167.5 -130t-219 -41.5q-69 0 -134.5 14.5t-124.5 45t-103 74t-69.5 106t-25.5 135.5q0 246 291 354q-113 50 -174 122t-61 184q0 108 59.5 188t150 118t197.5 38q102 0 189 -36t143.5 -113t56.5 -181q0 -118 -61 -191.5t-176 -117.5
q72 -31 120.5 -60t91 -70.5t63 -98t20.5 -130.5zM786 1016q0 95 -66.5 152t-162.5 57q-97 0 -164 -52t-67 -147q0 -42 17.5 -78.5t40 -60.5t63 -49t67 -38t72.5 -32q95 44 147.5 101t52.5 147zM819 342q0 36 -9 68t-22 56t-38.5 47t-45.5 38t-57.5 34t-60 29t-66.5 29
q-53 -22 -94 -46.5t-78.5 -59.5t-57.5 -82t-20 -103q0 -115 81 -184.5t198 -69.5q119 0 194.5 63.5t75.5 180.5z" />
    <glyph glyph-name="nine" unicode="9" horiz-adv-x="1101" 
d="M999 831q0 -151 -52.5 -293.5t-144 -256.5t-214.5 -201.5t-264 -136.5l-134 88q221 91 381 235.5t215 345.5q-128 -125 -294 -125q-171 0 -281.5 117.5t-110.5 288.5q0 192 130.5 325.5t322.5 133.5q108 0 194.5 -42.5t140.5 -115.5t82.5 -166t28.5 -197zM827 834
q0 69 -16.5 132t-49.5 116.5t-89.5 85.5t-128.5 32q-121 0 -197 -85.5t-76 -207.5q0 -118 74.5 -203.5t192.5 -85.5q87 0 152 38.5t134 115.5q4 28 4 62z" />
    <glyph glyph-name="colon" unicode=":" horiz-adv-x="458" 
d="M362 784q0 -47 -30 -77.5t-76 -30.5q-47 0 -78 30.5t-31 77.5t31 77t78 30t76.5 -30t29.5 -77zM362 106q0 -47 -30 -76.5t-76 -29.5q-48 0 -78.5 29.5t-30.5 76.5q0 49 30.5 78t78.5 29t77 -29t29 -78z" />
    <glyph glyph-name="semicolon" unicode=";" horiz-adv-x="458" 
d="M371 784q0 -47 -30 -77.5t-77 -30.5q-46 0 -76 30.5t-30 77.5t29.5 77t76.5 30t77 -30t30 -77zM340 236q-38 -295 -211 -551l-131 26q164 284 199 539z" />
    <glyph glyph-name="less" unicode="&#x3c;" horiz-adv-x="1101" 
d="M147 526l807 324v-137l-653 -252l653 -252v-137l-807 323v131z" />
    <glyph glyph-name="equal" unicode="=" horiz-adv-x="1101" 
d="M954 573h-807v125h807v-125zM954 225h-807v125h807v-125z" />
    <glyph glyph-name="greater" unicode="&#x3e;" horiz-adv-x="1101" 
d="M954 395l-807 -323v135l656 252l-656 250v141l807 -324v-131z" />
    <glyph glyph-name="question" unicode="?" horiz-adv-x="841" 
d="M764 1038q0 -67 -23 -129.5t-57.5 -108.5t-76.5 -97t-78.5 -94.5t-64.5 -101t-34 -116.5q-2 -18 -2 -57h-139q-4 36 -4 59q0 57 22 114t55 101.5t71.5 94t71.5 93t55 97.5t22 108q0 106 -67 169t-173 63q-58 0 -101.5 -17t-103.5 -55l-61 117q75 57 146 84t161 27
q159 0 270 -97t111 -254zM469 88q0 -48 -30 -78t-79 -30t-78.5 30t-29.5 78q0 50 29.5 80.5t78.5 30.5t79 -30.5t30 -80.5z" />
    <glyph glyph-name="at" unicode="@" horiz-adv-x="2236" 
d="M2046 641q0 -284 -177 -462.5t-466 -178.5h-186l28 203q-47 -91 -143 -155t-191 -64q-127 0 -186 90t-59 241q0 86 23 174t69 169t109 144t150.5 100.5t186.5 37.5q149 0 289 -41l-115 -772h56q108 0 196 42t144 112.5t86 161.5t30 192q0 146 -52 261.5t-145 190
t-218 113.5t-273 39q-171 0 -329.5 -66.5t-275.5 -180.5t-187 -275t-70 -340q0 -329 183 -500.5t532 -171.5q273 0 458 82l31 -125q-74 -32 -209.5 -60t-302.5 -28q-405 0 -628.5 204t-223.5 587q0 212 83.5 399t224.5 318t331.5 206.5t399.5 75.5q136 0 259 -29t227 -89
t180 -145t118.5 -203t42.5 -257zM1327 801q-61 16 -129 16q-74 0 -137.5 -31.5t-107 -83t-74 -118t-44.5 -135t-14 -134.5q0 -204 152 -204q53 0 110.5 41t98 92.5t69.5 105.5z" />
    <glyph glyph-name="A" unicode="A" horiz-adv-x="1294" 
d="M1096 0l-176 430h-562l-176 -430h-178l578 1366h131l575 -1366h-192zM416 575h446l-112 287q-92 226 -109 287q-1 -3 -18.5 -48.5t-44.5 -116t-48 -122.5z" />
    <glyph glyph-name="B" unicode="B" horiz-adv-x="1116" 
d="M1042 381q0 -87 -31 -156t-82 -112.5t-121.5 -72.5t-143.5 -40.5t-154 -11.5q-135 0 -346 22v1352q187 18 317 18q71 0 135 -10.5t125.5 -36t106 -64t71.5 -99t27 -136.5q0 -62 -20 -115t-53.5 -88.5t-64.5 -58t-65 -37.5q141 -35 220 -124t79 -230zM764 1020
q0 77 -42 130t-104 75t-139 22q-70 0 -141 -6v-469h194q110 0 171 71.5t61 176.5zM854 377q0 91 -45.5 152t-118 86.5t-168.5 25.5h-184v-506q91 -12 180 -12q54 0 101 7t91.5 25t75.5 46.5t49.5 73t18.5 102.5z" />
    <glyph glyph-name="C" unicode="C" horiz-adv-x="1247" 
d="M1223 104q-191 -133 -435 -133q-203 0 -362.5 92.5t-247.5 254.5t-88 364t88.5 364t248 254.5t361.5 92.5q225 0 422 -117l-88 -148q-85 51 -162 75t-169 24q-233 0 -370.5 -150t-137.5 -385t148 -393t382 -158q180 0 334 105z" />
    <glyph glyph-name="D" unicode="D" horiz-adv-x="1419" 
d="M1327 672q0 -167 -68 -310.5t-200 -238.5q-181 -133 -574 -133q-136 0 -323 18v1352q222 16 334 16q379 0 585 -162q119 -94 182.5 -232.5t63.5 -309.5zM1137 662q0 120 -33.5 216t-93 160.5t-144 107.5t-182.5 62t-213 19q-54 0 -129 -6v-1069q114 -15 201 -15
q282 0 438 135t156 390z" />
    <glyph glyph-name="E" unicode="E" horiz-adv-x="1021" 
d="M989 154l-24 -154h-803v1366h739v-152h-561v-426h504v-145h-504v-489h649z" />
    <glyph glyph-name="F" unicode="F" horiz-adv-x="903" 
d="M874 1214h-532v-458h475v-146h-475v-610h-180v1366h712v-152z" />
    <glyph glyph-name="G" unicode="G" horiz-adv-x="1441" 
d="M1313 117q-223 -146 -496 -146q-209 0 -374 89t-258 252.5t-93 373.5q0 153 55.5 285.5t151.5 224.5t229.5 144.5t286.5 52.5q285 0 492 -170l-107 -138q-175 146 -397 146q-228 0 -372 -153t-144 -382q0 -249 157 -410t406 -161q148 0 287 74v352h-338l16 141h498v-575z
" />
    <glyph glyph-name="H" unicode="H" horiz-adv-x="1417" 
d="M1255 0h-180v639h-735v-639h-180v1366h180v-580h735v580h180v-1366z" />
    <glyph glyph-name="I" unicode="I" horiz-adv-x="501" 
d="M340 0h-180v1366h180v-1366z" />
    <glyph glyph-name="J" unicode="J" horiz-adv-x="765" 
d="M614 1366v-1010q0 -197 -96 -293q-90 -90 -266 -90q-130 0 -244 58l31 149q96 -47 188 -47q47 0 82 10.5t57 33t36 47t20 63t8 69.5t2 78v932h182z" />
    <glyph glyph-name="K" unicode="K" horiz-adv-x="1206" 
d="M1206 0h-223l-506 635l-135 -143v-492h-182v1366h182v-668l653 686l189 -36l-578 -603z" />
    <glyph glyph-name="L" unicode="L" horiz-adv-x="962" 
d="M946 156l-24 -156h-762v1366h180v-1210h606z" />
    <glyph glyph-name="M" unicode="M" horiz-adv-x="1787" 
d="M1688 0h-185l-80 711q-32 304 -32 325q-2 -2 -19 -44t-47 -113t-53 -125l-330 -754h-127l-332 743q-102 230 -121 295q0 -25 -30 -321l-74 -717h-164l168 1372h137l353 -792q29 -67 65 -154t57 -141l21 -54q76 204 139 351l342 790h137z" />
    <glyph glyph-name="N" unicode="N" horiz-adv-x="1495" 
d="M1233 -18l-721 856q-38 44 -86.5 103t-77.5 95l-29 37q9 -181 9 -328v-745h-166v1356l106 28l699 -827l209 -258q-7 176 -7 317v750h164v-1354z" />
    <glyph glyph-name="O" unicode="O" horiz-adv-x="1572" 
d="M1483 684q0 -207 -86 -368t-246 -252t-369 -91q-201 0 -360 94t-245.5 256.5t-86.5 362.5q0 204 91.5 365.5t254 251.5t367.5 90q198 0 354.5 -95t241 -256.5t84.5 -357.5zM1290 664q0 112 -35 214.5t-99 181.5t-162.5 126t-217.5 47q-150 0 -263 -68.5t-171.5 -186.5
t-58.5 -267q0 -117 36.5 -221.5t102.5 -183.5t166 -125t221 -46q112 0 204 41.5t152 114t92.5 168t32.5 205.5z" />
    <glyph glyph-name="P" unicode="P" horiz-adv-x="1083" 
d="M1020 969q0 -111 -40.5 -195.5t-112.5 -135.5t-164 -76t-201 -25q-69 0 -162 6v-543h-180v1362q166 18 338 18q186 0 311 -61q211 -98 211 -350zM840 954q0 76 -28 131.5t-78.5 86.5t-110.5 45t-134 14q-95 0 -149 -8v-535q92 -8 143 -8q71 0 132 14t113 44.5t82 85.5
t30 130z" />
    <glyph glyph-name="Q" unicode="Q" horiz-adv-x="1574" 
d="M1483 684q0 -201 -82.5 -358.5t-231.5 -249.5q133 -113 279 -176t332 -97l-152 -129q-370 83 -627 328q-110 -29 -219 -29q-201 0 -360 94t-245.5 256.5t-86.5 362.5q0 204 91.5 365.5t254 251.5t367.5 90q198 0 354.5 -95t241 -256.5t84.5 -357.5zM1290 664
q0 112 -35 214.5t-99 181.5t-162.5 126t-217.5 47q-150 0 -263 -68.5t-171.5 -186.5t-58.5 -267q0 -117 36.5 -221.5t102.5 -183.5t166 -125t221 -46q112 0 204 41.5t152 114t92.5 168t32.5 205.5z" />
    <glyph glyph-name="R" unicode="R" horiz-adv-x="1165" 
d="M1165 0h-215l-372 571q-117 -6 -238 -6v-565h-180v1360q185 20 329 20q81 0 153 -11.5t141.5 -39.5t119 -72t79.5 -113.5t30 -158.5q0 -78 -26.5 -144t-69.5 -110t-83 -71.5t-83 -45.5zM829 971q0 71 -27 124t-75.5 83t-108.5 44.5t-133 14.5q-77 0 -145 -10v-525h168
q83 0 147 23t101 62t55 85.5t18 98.5z" />
    <glyph glyph-name="S" unicode="S" horiz-adv-x="970" 
d="M901 375q0 -123 -62 -216.5t-163 -140.5t-223 -47q-87 0 -175 26.5t-134.5 52t-104.5 63.5l37 180q176 -170 368 -170q114 0 186 64.5t72 179.5q0 50 -20.5 91t-55 69.5t-79.5 53t-94.5 47t-99 46.5t-94.5 55.5t-79.5 70t-55 94.5t-20.5 124q0 168 119.5 271.5
t290.5 103.5q186 0 348 -117l-63 -148q-2 2 -21.5 16t-27 19t-28.5 18t-34.5 19.5t-36.5 16t-42 14.5t-44.5 8.5t-50.5 3.5q-95 0 -157 -58t-62 -155q0 -61 33.5 -107.5t87 -77.5t118 -59.5t129 -62.5t118 -77t87 -112t33.5 -159z" />
    <glyph glyph-name="T" unicode="T" horiz-adv-x="1148" 
d="M1130 1214h-464v-1214h-181v1214h-467v152h1112v-152z" />
    <glyph glyph-name="U" unicode="U" horiz-adv-x="1423" 
d="M1272 1366v-817q0 -149 -29.5 -256t-118.5 -187q-150 -135 -411 -135q-339 0 -477 199q-84 116 -84 381v815h182v-815q0 -119 19 -197.5t77 -132.5q102 -96 287 -96q194 0 289 104q84 91 84 322v815h182z" />
    <glyph glyph-name="V" unicode="V" horiz-adv-x="1275" 
d="M1264 1350l-553 -1350h-142l-557 1350l183 36l323 -808q86 -220 129 -349q1 5 19.5 56.5t49.5 135.5t60 157l322 808z" />
    <glyph glyph-name="W" unicode="W" horiz-adv-x="1949" 
d="M1933 1350l-538 -1350h-142l-186 471q-56 133 -90 236l-90 -234l-189 -473h-141l-541 1350l179 36l344 -864q25 -65 52 -139.5t42.5 -118.5t17.5 -49q16 62 113 305l139 350l-190 480l174 36l340 -862q23 -57 48.5 -127t39.5 -111l14 -42q56 161 103 282l335 860z" />
    <glyph glyph-name="X" unicode="X" horiz-adv-x="1284" 
d="M1274 18l-187 -43l-450 603l-459 -603l-168 43l531 689l-492 643l187 36l407 -544l416 544l170 -36l-490 -635z" />
    <glyph glyph-name="Y" unicode="Y" horiz-adv-x="1165" 
d="M1163 1352l-487 -734v-618h-182v618l-490 734l182 34l279 -419q38 -57 129 -209q7 21 129 211l276 417z" />
    <glyph glyph-name="Z" unicode="Z" horiz-adv-x="1189" 
d="M1159 156l-24 -156h-1072l-32 72l827 1142h-752v152h984l30 -74l-825 -1136h864z" />
    <glyph glyph-name="bracketleft" unicode="[" horiz-adv-x="641" 
d="M561 -270l-16 -117h-377v1845h393l-16 -119h-230v-1609h246z" />
    <glyph glyph-name="backslash" unicode="\" horiz-adv-x="958" 
d="M874 -401l-815 1888h138l811 -1888h-134z" />
    <glyph glyph-name="bracketright" unicode="]" horiz-adv-x="641" 
d="M473 -387h-393l18 117h228v1609h-246l18 121h375v-1847z" />
    <glyph glyph-name="asciicircum" unicode="^" horiz-adv-x="1101" 
d="M98 866l396 670h116l396 -670h-140l-315 541l-313 -541h-140z" />
    <glyph glyph-name="underscore" unicode="_" 
d="M1030 -512h-1036v115h1036v-115z" />
    <glyph glyph-name="grave" unicode="`" 
d="M608 1059l-301 270l152 47l256 -272z" />
    <glyph glyph-name="a" unicode="a" horiz-adv-x="909" 
d="M870 -16q-44 -11 -86 -11q-65 0 -112 27t-58 84q-73 -56 -136 -83.5t-142 -27.5q-122 0 -196 76t-74 197q0 51 13 93.5t39 74t56 56t74 42t81.5 29t90.5 20t88.5 12.5t87.5 9v39q0 101 -39.5 148.5t-148.5 47.5q-71 0 -137 -25.5t-154 -74.5v143q177 92 327 92
q191 0 269 -114q51 -64 51 -228v-370q0 -31 1 -48t5.5 -39.5t14 -34t27.5 -20t44 -8.5l37 4zM596 182v297q-45 -4 -77 -9t-80 -15t-80.5 -26t-64.5 -39t-48.5 -58.5t-16.5 -79.5q0 -69 46 -110.5t116 -41.5q89 0 205 82z" />
    <glyph glyph-name="b" unicode="b" horiz-adv-x="1071" 
d="M995 481q0 -220 -137 -364t-354 -144q-185 0 -367 101v1374h170v-580q40 30 110 57t150 27q129 0 228 -65.5t149.5 -172t50.5 -233.5zM819 465q0 145 -81 243.5t-224 98.5q-108 0 -207 -72v-573q2 -1 12.5 -6t15 -7t16.5 -7t19 -7.5t19.5 -7t22 -7t23 -5.5t25 -5t25.5 -3
t27 -1q141 0 224 105.5t83 253.5z" />
    <glyph glyph-name="c" unicode="c" horiz-adv-x="874" 
d="M852 76q-134 -103 -307 -103q-216 0 -341.5 135t-125.5 345q0 135 59 249t166.5 182t241.5 68q73 0 141.5 -18t101.5 -35t58 -35l-62 -119q-102 66 -227 66q-96 0 -167.5 -50.5t-105.5 -127t-34 -166.5q0 -96 36 -175t109.5 -128t171.5 -49q20 0 40.5 2.5t36.5 6.5
t34.5 10.5t30.5 11.5t27.5 13.5t22.5 12.5t20 12t14 9z" />
    <glyph glyph-name="d" unicode="d" horiz-adv-x="1083" 
d="M1063 94l-21 -108q-50 -13 -88 -13q-148 0 -172 115q-121 -115 -288 -115q-97 0 -177.5 39.5t-132.5 107t-80 154t-28 181.5q0 134 56.5 247t163.5 181.5t243 68.5q119 0 225 -59v555h170v-1202q0 -33 1 -51t6 -41.5t14.5 -35t27.5 -20t45 -8.5q23 0 35 4zM764 199v542
q-86 76 -211 76q-97 0 -167.5 -50.5t-104 -128.5t-33.5 -173q0 -143 83 -245.5t220 -102.5q62 0 109 19.5t104 62.5z" />
    <glyph glyph-name="e" unicode="e" horiz-adv-x="972" 
d="M848 219l63 -96q-55 -61 -152.5 -105.5t-221.5 -44.5q-142 0 -247.5 64.5t-158.5 173.5t-53 246q0 132 51.5 243.5t154.5 181.5t240 70q94 0 167.5 -33t114.5 -79.5t67.5 -105t35 -100.5t9.5 -75l-68 -84h-602q-2 -153 88 -257.5t237 -104.5t275 106zM760 590
q-8 105 -72 169t-168 64t-171 -63t-93 -170h504z" />
    <glyph glyph-name="f" unicode="f" horiz-adv-x="638" 
d="M713 1462l-23 -129q-30 6 -65 6q-65 0 -112 -15.5t-74 -40t-42.5 -66t-20.5 -83.5t-5 -102v-106h252v-127h-250v-799h-168v799h-193v127h193v139q0 182 105 296t298 114q48 0 105 -13z" />
    <glyph glyph-name="g" unicode="g" horiz-adv-x="954" 
d="M928 807l-205 12q94 -87 94 -223q0 -146 -104.5 -239t-251.5 -93q-70 0 -88 6q-78 -35 -78 -80q0 -17 12 -29.5t38 -21.5t42.5 -13.5t48.5 -10.5l101 -23q61 -13 105 -26t96.5 -37.5t85 -54.5t55 -78.5t22.5 -108.5q0 -86 -41 -151.5t-109 -102t-144.5 -54.5t-157.5 -18
q-77 0 -149.5 14.5t-140 46t-108.5 91t-41 139.5q0 100 63 174.5t160 114.5q-43 22 -64.5 46t-21.5 63q0 53 33 85.5t92 61.5q-100 43 -153 122.5t-53 186.5q0 155 109.5 250.5t266.5 95.5q26 0 54 -3t44.5 -6.5t43 -9.5t32.5 -7l318 12zM657 600q0 100 -58.5 168t-158.5 68
q-96 0 -152.5 -58t-56.5 -153q0 -105 60 -174.5t164 -69.5q94 0 148 61.5t54 157.5zM737 -242q0 45 -18.5 79.5t-54 57t-74.5 37t-92 25.5l-164 35q-164 -98 -164 -228q0 -52 27 -89.5t71.5 -57t92 -28.5t98.5 -9q52 0 96.5 7.5t88 26t68.5 55.5t25 89z" />
    <glyph glyph-name="h" unicode="h" horiz-adv-x="1064" 
d="M934 0h-170v557q0 252 -205 252q-76 0 -135 -34.5t-117 -100.5v-674h-170v1448h170v-639q130 143 309 143q169 0 254 -118q64 -82 64 -216v-618z" />
    <glyph glyph-name="i" unicode="i" horiz-adv-x="442" 
d="M330 1235q0 -46 -29 -76.5t-76 -30.5t-77.5 30t-30.5 77t30.5 76.5t77.5 29.5q46 0 75.5 -30t29.5 -76zM307 0h-172v926h172v-926z" />
    <glyph glyph-name="j" unicode="j" horiz-adv-x="436" 
d="M299 926v-994q0 -87 -9 -151.5t-33.5 -122t-65.5 -93.5t-107 -56.5t-156 -20.5q-19 0 -42 2t-36 4l-14 2l23 127q30 -6 67 -6q52 0 90 16.5t59.5 42t34 68t16 83.5t3.5 99v1000h170zM324 1239q0 -46 -29.5 -76t-75.5 -30q-49 0 -78.5 29t-29.5 77q0 47 30.5 77t77.5 30
q46 0 75.5 -30.5t29.5 -76.5z" />
    <glyph glyph-name="k" unicode="k" horiz-adv-x="958" 
d="M961 0h-205l-338 434l-111 -106v-328h-172v1448h172v-936l434 430l172 -35l-378 -375z" />
    <glyph glyph-name="l" unicode="l" horiz-adv-x="442" 
d="M307 0h-170v1448h170v-1448z" />
    <glyph glyph-name="m" unicode="m" horiz-adv-x="1652" 
d="M1524 0h-170v582q0 109 -43.5 169t-147.5 60q-78 0 -134.5 -36t-106.5 -105q2 -10 2 -84v-586h-172v588q0 221 -187 221q-136 0 -243 -139v-670h-170v590v30.5v33t-0.5 31.5t-1.5 34t-3.5 32t-5.5 33.5t-7.5 30.5t-10.5 31.5t-14.5 27.5t-18.5 27l148 53q61 -46 73 -155
q130 153 305 153q201 0 277 -164q141 164 326 164q78 0 149.5 -32.5t110.5 -94.5q45 -73 45 -211v-614z" />
    <glyph glyph-name="n" unicode="n" horiz-adv-x="1077" 
d="M946 0h-172v559q0 250 -203 250q-78 0 -136 -34t-116 -101v-674h-172v651q0 84 -11 144t-48 106l148 53q63 -45 71 -157q72 77 148 116t172 39q179 0 264 -129q55 -86 55 -202v-621z" />
    <glyph glyph-name="o" unicode="o" horiz-adv-x="1103" 
d="M1028 463q0 -211 -130 -350.5t-343 -139.5t-345 136.5t-132 351.5q0 214 133 352.5t350 138.5q213 0 340 -139t127 -350zM854 457q0 71 -19 135.5t-56 116t-97.5 82t-136.5 30.5q-135 0 -214 -99t-79 -239q0 -101 35 -185.5t108 -139t172 -54.5q136 0 211.5 100.5
t75.5 252.5z" />
    <glyph glyph-name="p" unicode="p" horiz-adv-x="1081" 
d="M1008 481q0 -102 -33 -194t-92 -162t-147 -111t-191 -41q-66 0 -114.5 10t-111.5 35v-530h-172v1151q0 50 -1 72.5t-6 64t-18.5 72t-35.5 55.5l145 53q55 -32 68 -100q132 96 289 96q129 0 226 -65.5t145.5 -171.5t48.5 -234zM834 469q0 89 -33.5 166t-103 127.5
t-162.5 50.5q-102 0 -216 -70v-577q95 -62 207 -62q97 0 168.5 52.5t105.5 134t34 178.5z" />
    <glyph glyph-name="q" unicode="q" horiz-adv-x="1071" 
d="M934 -512h-170v571q-121 -86 -256 -86q-130 0 -230 66t-151 174.5t-51 239.5q0 217 136 358t353 141q173 0 369 -78v-1386zM764 193v577q-101 49 -203 49q-143 0 -227 -100t-84 -244q0 -93 33.5 -173.5t104 -133.5t163.5 -53q62 0 108.5 18.5t104.5 59.5z" />
    <glyph glyph-name="r" unicode="r" horiz-adv-x="733" 
d="M721 913l-39 -149q-71 31 -123 31q-39 0 -74 -15.5t-67 -47t-51.5 -55t-47.5 -63.5v-614h-172v651q0 84 -11 144t-48 106l148 53q73 -54 73 -204q26 42 50 72.5t57 62.5t73 49.5t84 17.5q68 0 148 -39z" />
    <glyph glyph-name="s" unicode="s" horiz-adv-x="751" 
d="M690 256q0 -90 -50 -156t-125 -96.5t-163 -30.5q-191 0 -321 121l69 119q114 -109 248 -109q75 0 119.5 36t44.5 104q0 41 -23 71.5t-60 51t-81.5 39.5t-89 42t-81.5 52t-60 76t-23 108q0 123 88.5 195.5t218.5 72.5q136 0 265 -82l-52 -127q-57 39 -104 58.5t-102 19.5
q-68 0 -106 -33.5t-38 -89.5q0 -39 23.5 -68.5t61 -49.5t83 -39t91 -42.5t83 -53t61 -78t23.5 -111.5z" />
    <glyph glyph-name="t" unicode="t" horiz-adv-x="708" 
d="M705 37q-114 -57 -246 -57q-130 0 -192 67.5t-62 202.5v549h-193v106l54 4q113 9 152 46.5t58 146.5l9 94h88v-270h260v-127h-260v-486q0 -52 3.5 -81.5t17 -59t43 -42.5t77.5 -13q39 0 90 13t76 24z" />
    <glyph glyph-name="u" unicode="u" horiz-adv-x="1067" 
d="M1042 94l-22 -108q-43 -13 -88 -13q-155 0 -174 136q-68 -65 -137.5 -100.5t-159.5 -35.5q-330 0 -330 340v613h170v-578q0 -231 201 -231q74 0 125 27t114 87v695h172v-684q0 -32 1 -50t6 -40.5t14.5 -34t27.5 -19.5t44 -8z" />
    <glyph glyph-name="v" unicode="v" horiz-adv-x="917" 
d="M901 909l-371 -909h-149l-365 909l170 33l193 -500q30 -76 84 -239q56 168 84 239l196 500z" />
    <glyph glyph-name="w" unicode="w" horiz-adv-x="1429" 
d="M1413 909l-366 -909h-146l-192 496l-185 -496h-145l-363 909l164 33l219 -559q54 -137 72 -207q45 135 72 205l102 270l-102 258l155 33l213 -559q50 -137 64 -193q17 68 67 195l218 557z" />
    <glyph glyph-name="x" unicode="x" horiz-adv-x="913" 
d="M899 20l-176 -32l-268 372l-273 -374l-166 30l349 459l-328 434l174 33l252 -350l254 350l164 -33l-328 -430z" />
    <glyph glyph-name="y" unicode="y" horiz-adv-x="913" 
d="M895 909l-428 -1048q-24 -58 -47.5 -103t-58 -92t-72.5 -77.5t-90.5 -50t-112.5 -19.5q-47 0 -129 16l27 127q44 -12 94 -12q40 0 75.5 18.5t60 43t49 66.5t37 70t30.5 72l41 98l-353 891l168 33l181 -475q13 -34 26.5 -72t24.5 -70t19 -58t14 -44.5t6 -19.5
q2 7 14.5 45.5t35 102.5t42.5 114l186 477z" />
    <glyph glyph-name="z" unicode="z" horiz-adv-x="862" 
d="M831 129l-26 -129h-752l-20 70l532 729h-483v127h690l23 -68l-531 -729h567z" />
    <glyph glyph-name="braceleft" unicode="{" horiz-adv-x="641" 
d="M543 -387h-78q-75 0 -124.5 21.5t-75.5 64.5t-36 94.5t-10 124.5v334q0 98 -20 143.5t-93 75.5v117q73 25 93 73.5t20 159.5v330q0 74 10 126t36 96t75.5 65.5t124.5 21.5h78v-119q-96 0 -135 -42t-39 -158v-338q0 -61 -4 -96.5t-18.5 -72.5t-45 -62t-80.5 -46
q50 -19 80.5 -43t45 -60.5t18.5 -72t4 -96.5v-299q0 -64 5.5 -101.5t23.5 -68.5t53 -44t92 -13v-115z" />
    <glyph glyph-name="bar" unicode="|" horiz-adv-x="610" 
d="M375 -410h-139v1880h139v-1880z" />
    <glyph glyph-name="braceright" unicode="}" horiz-adv-x="641" 
d="M176 -387h-78v115q57 0 92 13t53 44t23.5 68.5t5.5 101.5v299q0 61 4 96.5t18.5 72t45 60.5t80.5 43q-50 21 -80.5 46t-45 62t-18.5 72.5t-4 96.5v338q0 116 -39 158t-135 42v119h78q75 0 124.5 -21.5t75.5 -65.5t36 -96t10 -126v-330q0 -111 20 -159.5t93 -73.5v-117
q-73 -30 -93 -75.5t-20 -143.5v-334q0 -73 -10 -124.5t-36 -94.5t-75.5 -64.5t-124.5 -21.5z" />
    <glyph glyph-name="asciitilde" unicode="~" horiz-adv-x="1101" 
d="M885 616l84 -57l-11 -22t-30 -49t-48 -61.5t-63.5 -48.5t-77.5 -22q-49 0 -102.5 22t-91.5 49t-85 49t-85 22q-29 0 -56 -14t-45 -34.5t-31.5 -41t-19.5 -34.5l-6 -14l-84 58q3 8 9 22t27.5 49t46 61.5t64 48.5t82.5 22q48 0 101 -22t92 -48t87 -48t87 -22q26 0 51.5 14
t43.5 33.5t32.5 39.5t21.5 34z" />
    <glyph glyph-name="nbspace" unicode="&#xa0;" horiz-adv-x="442" 
 />
    <glyph glyph-name="exclamdown" unicode="&#xa1;" horiz-adv-x="544" 
d="M346 -430h-196l32 1036h123zM356 840q0 -51 -29.5 -82t-80.5 -31q-50 0 -80.5 31t-30.5 82q0 49 31.5 78.5t79.5 29.5q49 0 79.5 -30t30.5 -78z" />
    <glyph glyph-name="cent" unicode="&#xa2;" horiz-adv-x="1101" 
d="M555 137v662q-108 -26 -170.5 -115t-62.5 -217t62 -215t171 -115zM676 807v-682q66 4 125.5 26t93.5 44l59 -125q-113 -80 -278 -97v-184h-121v184q-187 22 -299.5 151t-112.5 333q0 193 114 330.5t298 162.5v178h121v-176q70 -5 147 -31t135 -65l-69 -121
q-1 1 -10.5 6.5t-15.5 9.5t-19 11t-24 11.5t-28.5 10.5t-34 10.5t-38 8t-43.5 4.5z" />
    <glyph glyph-name="sterling" unicode="&#xa3;" horiz-adv-x="1101" 
d="M979 1335l29 -145q-84 12 -150 12q-41 0 -75.5 -6.5t-60 -21.5t-44.5 -30.5t-33.5 -43t-24 -48.5t-18 -58t-13 -60t-11.5 -65.5t-11 -65.5l-24 -129h323v-121h-338l-32 -178q-15 -81 -50.5 -141.5t-68.5 -88.5h651l-27 -145h-933l18 127q106 10 154.5 65t70.5 164l41 197
h-231v121h246l47 264q8 45 18 82t27 80t38.5 76.5t53.5 66t71.5 53.5t93.5 34t118 13q34 0 70 -2t56 -4z" />
    <glyph glyph-name="currency" unicode="&#xa4;" horiz-adv-x="1095" 
d="M1018 299l-86 -84q-9 9 -39 38.5t-44 44t-37 39.5t-40 46q-104 -74 -223 -74q-116 0 -223 74q-16 -20 -39 -45t-38 -40.5t-45.5 -45.5t-37.5 -37l-86 84q9 9 49 50t65.5 65.5t53.5 46.5q-76 107 -76 223t76 223q-21 16 -45 38t-40 38t-43 43.5t-40 40.5l86 84
q118 -114 160 -166q112 74 223 74t223 -74q61 71 160 166l86 -84q-9 -9 -39 -39.5t-44.5 -44.5t-39 -36.5t-45.5 -39.5q76 -110 76 -223t-76 -223q20 -16 44 -38.5t40 -38.5t44.5 -45t39.5 -40zM815 684q0 110 -78 187t-188 77t-187 -77t-77 -187q0 -112 77 -188t187 -76
q111 0 188.5 76t77.5 188z" />
    <glyph glyph-name="yen" unicode="&#xa5;" horiz-adv-x="1101" 
d="M106 391l25 129h334v80l-59 102h-300l25 129h201l-271 478l179 34l321 -608l322 608l159 -34l-270 -478h250l-25 -129h-299l-57 -102v-80h356l-24 -129h-332v-397h-176v397h-359z" />
    <glyph glyph-name="brokenbar" unicode="&#xa6;" horiz-adv-x="610" 
d="M236 295h139v-705h-139v705zM236 1470h139v-706h-139v706z" />
    <glyph glyph-name="section" unicode="&#xa7;" horiz-adv-x="1101" 
d="M954 420q0 -209 -213 -361q52 -61 76.5 -114t24.5 -123q0 -154 -108.5 -242t-266.5 -88q-132 0 -238 59l35 132q101 -56 201 -56q84 0 140.5 51.5t56.5 135.5q0 36 -14 71t-42 70t-53.5 61.5t-64.5 63.5q-10 9 -15 14l-82 78q-56 54 -86.5 87t-70 86.5t-58 109.5
t-18.5 118q0 120 53.5 204.5t159.5 150.5q-46 58 -66 105t-20 112q0 97 52.5 172.5t135 114t176.5 38.5q122 0 232 -55l-39 -135q-100 47 -185 47q-83 0 -136.5 -51t-53.5 -131q0 -30 11 -60t22 -49.5t42 -53t43.5 -45.5t55.5 -52l98 -92q50 -47 81 -80.5t65.5 -81.5
t51.5 -100.5t17 -110.5zM788 399q0 77 -39.5 142t-109.5 133l-186 180q-131 -115 -131 -258q0 -141 131 -266l202 -197q62 51 97.5 120.5t35.5 145.5z" />
    <glyph glyph-name="dieresis" unicode="&#xa8;" 
d="M434 1239q0 -44 -29 -72t-73 -28q-45 0 -74 28t-29 72q0 45 28.5 73.5t74.5 28.5q44 0 73 -29t29 -73zM793 1239q0 -44 -28.5 -72t-72.5 -28q-45 0 -74.5 28t-29.5 72t29 73t73 29q46 0 74.5 -28.5t28.5 -73.5z" />
    <glyph glyph-name="copyright" unicode="&#xa9;" horiz-adv-x="1441" 
d="M1442 684q0 -201 -99 -365.5t-266.5 -257t-367.5 -92.5q-142 0 -273.5 57.5t-226.5 154t-152 228.5t-57 275q0 146 58 278.5t155 227.5t230 151t278 56q195 0 360.5 -94.5t263 -259t97.5 -359.5zM1331 684q0 166 -81.5 307t-222 224t-306.5 83t-306.5 -83t-222 -224
t-81.5 -307q0 -122 47.5 -235t128 -197t192 -134t234.5 -50q127 0 241.5 48t197 130t131 196.5t48.5 241.5zM956 451l52 -95q-124 -80 -267 -80q-179 0 -297 115.5t-118 294.5q0 176 119.5 292t295.5 116q147 0 258 -72l-55 -96q-95 59 -201 59q-129 0 -207.5 -82.5
t-78.5 -212.5q0 -131 84.5 -216t214.5 -85q106 0 200 62z" />
    <glyph glyph-name="ordfeminine" unicode="&#xaa;" horiz-adv-x="622" 
d="M53 963q0 40 14.5 71.5t40.5 51.5t58 35t70.5 23t73.5 13.5t71 9.5q5 0 7.5 0.5t6 1t6.5 0.5v21q0 106 -118 106q-86 0 -191 -59v96q113 58 211 58q118 0 164.5 -54.5t46.5 -160.5v-207q0 -51 9 -69.5t46 -18.5q15 0 31 4l-16 -80q-21 -8 -62 -8q-91 0 -110 65
q-50 -35 -90.5 -51t-96.5 -16q-74 0 -123 44.5t-49 123.5zM170 967q0 -42 26 -63t68 -21q52 0 135 49v162q-109 -11 -151 -27q-78 -31 -78 -100zM559 537h-502v100h502v-100z" />
    <glyph glyph-name="guillemotleft" unicode="&#xab;" horiz-adv-x="903" 
d="M825 160l-71 -119l-348 424l348 422l71 -107l-256 -311zM494 160l-74 -119l-346 424l346 422l74 -107l-258 -311z" />
    <glyph glyph-name="logicalnot" unicode="&#xac;" horiz-adv-x="1101" 
d="M954 86h-131v315h-676v123h807v-438z" />
    <glyph glyph-name="registered" unicode="&#xae;" horiz-adv-x="966" 
d="M967 1108q0 -133 -67 -242.5t-179.5 -171t-245.5 -61.5q-127 0 -236.5 62.5t-174 172.5t-64.5 240q0 129 65.5 239t177 173t240.5 63t240.5 -63t177.5 -173t66 -239zM885 1108q0 168 -117.5 286.5t-284.5 118.5q-168 0 -285.5 -118.5t-117.5 -286.5q0 -165 116.5 -286.5
t280.5 -121.5q172 0 290 118t118 290zM686 848h-100l-109 211h-82v-211h-86v518q65 10 137 10q55 0 99.5 -12.5t77 -48.5t32.5 -92q0 -100 -98 -140zM571 1217q0 90 -116 90q-50 0 -60 -2v-179h86q38 0 64 25.5t26 65.5z" />
    <glyph glyph-name="macron" unicode="&#xaf;" 
d="M776 1167h-530v115h530v-115z" />
    <glyph glyph-name="degree" unicode="&#xb0;" horiz-adv-x="743" 
d="M651 1110q0 -120 -81 -196t-197 -76q-118 0 -199.5 75t-81.5 197q0 120 82 197t199 77q119 0 198.5 -76.5t79.5 -197.5zM543 1110q0 78 -48 127t-122 49t-123 -49.5t-49 -126.5t49 -125.5t123 -48.5t122 48.5t48 125.5z" />
    <glyph glyph-name="plusminus" unicode="&#xb1;" horiz-adv-x="1101" 
d="M487 209v280h-340v123h340v281h129v-281h338v-123h-338v-280h-129zM954 0h-807v125h807v-125z" />
    <glyph glyph-name="twosuperior" unicode="&#xb2;" horiz-adv-x="739" 
d="M676 825l-23 -112h-569l-18 67q28 26 95 84.5t112.5 101.5t97.5 99t79 108.5t27 98.5q0 61 -37 96t-102 35q-42 0 -88.5 -19.5t-71.5 -39.5l-26 -19l-48 94q5 5 13.5 12t36.5 26.5t57.5 34t73 26.5t86.5 12q118 0 188 -67t70 -175q0 -43 -19 -90t-44 -84.5t-68.5 -84
t-74 -74.5t-78.5 -70.5t-66 -59.5h397z" />
    <glyph glyph-name="threesuperior" unicode="&#xb3;" horiz-adv-x="735" 
d="M651 938q0 -112 -89 -178t-206 -66q-51 0 -97.5 9.5t-77 23.5t-53.5 28t-34 23l-10 10l43 97q3 -3 9.5 -8.5t26.5 -20t42.5 -25t56.5 -19.5t68 -9q68 0 111.5 35t43.5 102q0 70 -55 101.5t-141 31.5h-66v98h139q4 1 11 3.5t25 13t31.5 24t24.5 37t11 51.5q0 55 -36.5 85
t-96.5 30q-41 0 -83 -15.5t-63 -31.5l-22 -16l-45 88q4 4 11.5 10t32 21.5t51 27.5t68 21.5t83.5 9.5q102 0 176.5 -55.5t74.5 -151.5q0 -122 -127 -184q76 -21 119 -72.5t43 -128.5z" />
    <glyph glyph-name="acute" unicode="&#xb4;" 
d="M715 1329l-299 -270l-109 45l256 272z" />
    <glyph glyph-name="mu" unicode="&#xb5;" horiz-adv-x="1079" 
d="M1030 98l-22 -108q-50 -13 -93 -13q-159 0 -176 142q-57 -72 -118 -108t-146 -36q-71 0 -133.5 38t-89.5 104q8 -106 8 -197v-190q0 -27 -10 -140h-154q17 100 17 211v1125h170v-576q0 -231 200 -231q75 0 128.5 26.5t109.5 87.5v693h172v-664q0 -35 0.5 -53t3.5 -41.5
t9 -34.5t16.5 -22t27 -15t39.5 -4t41 6z" />
    <glyph glyph-name="paragraph" unicode="&#xb6;" horiz-adv-x="1101" 
d="M1063 1268h-195v-1678h-114v1678h-160v-1678h-117v1104q-176 -20 -298 75t-122 255q0 90 32.5 157t91.5 106.5t134 59t166 19.5h582v-98z" />
    <glyph glyph-name="periodcentered" unicode="&#xb7;" horiz-adv-x="397" 
d="M305 461q0 -47 -30.5 -77t-77.5 -30q-46 0 -76.5 30t-30.5 77q0 49 29.5 77.5t77.5 28.5q50 0 79 -28.5t29 -77.5z" />
    <glyph glyph-name="cedilla" unicode="&#xb8;" 
d="M688 -250q0 -80 -62.5 -125t-152.5 -45q-39 0 -73.5 4t-49.5 8l-14 5l18 90q50 -19 101 -19q49 0 74.5 23t25.5 57q0 31 -28.5 48.5t-71.5 17.5l-52 -4l68 190h92l-43 -127q11 2 27 2q66 0 103.5 -34t37.5 -91z" />
    <glyph glyph-name="onesuperior" unicode="&#xb9;" horiz-adv-x="559" 
d="M412 713h-146v643q-59 -47 -182 -105l-51 88q264 131 340 191l39 -19v-798z" />
    <glyph glyph-name="ordmasculine" unicode="&#xba;" horiz-adv-x="753" 
d="M670 637v-100h-586v100h586zM553 1087q0 84 -49.5 143.5t-132.5 59.5q-80 0 -126 -52t-46 -132q0 -87 50 -146t136 -59q80 0 124 52t44 134zM377 801q-131 0 -216 80.5t-85 212.5q0 129 87.5 213t217.5 84q128 0 212.5 -82.5t84.5 -212.5t-85.5 -212.5t-215.5 -82.5z" />
    <glyph glyph-name="guillemotright" unicode="&#xbb;" horiz-adv-x="903" 
d="M827 465l-346 -424l-73 106l258 312l-258 309l73 119zM494 465l-347 -424l-71 106l256 312l-256 309l71 119z" />
    <glyph glyph-name="onequarter" unicode="&#xbc;" horiz-adv-x="1789" 
d="M1729 307l-15 -100h-121v-207h-141v207h-365l-22 104l438 506l90 -20v-490h136zM1456 307v318l-268 -318h268zM547 535h-146v643q-59 -47 -182 -105l-51 88q264 131 340 191l39 -19v-798zM1323 1331l-717 -1333h-139l717 1333h139z" />
    <glyph glyph-name="onehalf" unicode="&#xbd;" horiz-adv-x="1789" 
d="M1702 113l-23 -113h-569l-18 68q28 26 95 84.5t112.5 101.5t97.5 98.5t79 108t27 98.5q0 61 -37 96t-102 35q-42 0 -88.5 -19.5t-71.5 -38.5l-26 -20l-48 95q5 4 13.5 11.5t36.5 26.5t57.5 33.5t73 26.5t86.5 12q118 0 188 -67t70 -175q0 -43 -19 -90t-44.5 -84.5
t-68 -83.5t-73.5 -74t-79 -70.5t-66 -59.5h397zM547 535h-146v643q-59 -47 -182 -105l-51 88q264 131 340 191l39 -19v-798zM1323 1331l-717 -1333h-139l717 1333h139z" />
    <glyph glyph-name="threequarters" unicode="&#xbe;" horiz-adv-x="1789" 
d="M1729 307l-15 -100h-121v-207h-141v207h-365l-22 104l438 506l90 -20v-490h136zM1456 307v318l-268 -318h268zM1323 1331l-717 -1333h-139l717 1333h139zM676 760q0 -112 -89 -178t-206 -66q-51 0 -97.5 9.5t-77 23.5t-53.5 28t-33 23l-11 10l43 97q3 -3 9 -8.5t26.5 -20
t42.5 -25t56 -19.5t68 -9q69 0 112.5 35t43.5 102q0 70 -55.5 101.5t-141.5 31.5h-65v98h139q4 1 11 3.5t24.5 13t31 24t24.5 37t11 51.5q0 55 -36.5 85t-96.5 30q-41 0 -83 -15.5t-63 -31.5l-22 -16l-45 88q4 4 11.5 10t32 21.5t51 27.5t68 21.5t83.5 9.5q102 0 177 -55.5
t75 -151.5q0 -122 -127 -184q76 -21 119 -72.5t43 -128.5z" />
    <glyph glyph-name="questiondown" unicode="&#xbf;" horiz-adv-x="841" 
d="M82 -102q0 67 23 129.5t57.5 108.5t76.5 97t78.5 94.5t64.5 101t34 116.5q2 18 2 57h139q4 -36 4 -59q0 -57 -22 -114t-55 -101.5t-71.5 -94.5t-71.5 -93t-55 -97.5t-22 -108.5q0 -106 67 -168.5t173 -62.5q58 0 101.5 17t103.5 55l61 -117q-75 -57 -146 -84t-161 -27
q-159 0 -270 97t-111 254zM381 840q0 48 29.5 78t78.5 30t79 -30t30 -78q0 -50 -30 -80.5t-79 -30.5t-78.5 30.5t-29.5 80.5z" />
    <glyph glyph-name="Agrave" unicode="&#xc0;" horiz-adv-x="1294" 
d="M1096 0l-176 430h-562l-176 -430h-178l578 1366h131l575 -1366h-192zM416 575h446l-112 287q-92 226 -109 287q-1 -3 -18.5 -48.5t-44.5 -116t-48 -122.5zM690 1485l-350 268l156 51l305 -274z" />
    <glyph glyph-name="Aacute" unicode="&#xc1;" horiz-adv-x="1294" 
d="M1096 0l-176 430h-562l-176 -430h-178l578 1366h131l575 -1366h-192zM416 575h446l-112 287q-92 226 -109 287q-1 -3 -18.5 -48.5t-44.5 -116t-48 -122.5zM930 1753l-352 -268l-109 45l307 274z" />
    <glyph glyph-name="Acircumflex" unicode="&#xc2;" horiz-adv-x="1294" 
d="M1096 0l-176 430h-562l-176 -430h-178l578 1366h131l575 -1366h-192zM416 575h446l-112 287q-92 226 -109 287q-1 -3 -18.5 -48.5t-44.5 -116t-48 -122.5zM705 1788l247 -301l-133 -25l-178 215l-178 -215l-125 25l252 301h115z" />
    <glyph glyph-name="Atilde" unicode="&#xc3;" horiz-adv-x="1294" 
d="M1096 0l-176 430h-562l-176 -430h-178l578 1366h131l575 -1366h-192zM416 575h446l-112 287q-92 226 -109 287q-1 -3 -18.5 -48.5t-44.5 -116t-48 -122.5zM887 1724l90 -34q-26 -80 -77.5 -131.5t-127.5 -51.5q-36 0 -74 16t-65 35.5t-61.5 35.5t-63.5 16
q-67 0 -107 -105l-90 37q63 184 209 184q52 0 135 -51t127 -51q70 0 105 100z" />
    <glyph glyph-name="Adieresis" unicode="&#xc4;" horiz-adv-x="1294" 
d="M1096 0l-176 430h-562l-176 -430h-178l578 1366h131l575 -1366h-192zM416 575h446l-112 287q-92 226 -109 287q-1 -3 -18.5 -48.5t-44.5 -116t-48 -122.5zM559 1626q0 -44 -28 -72t-74 -28q-44 0 -73.5 28.5t-29.5 71.5q0 44 29.5 73.5t73.5 29.5q46 0 74 -28.5t28 -74.5
zM938 1626q0 -43 -28 -71.5t-72 -28.5t-73.5 28.5t-29.5 71.5q0 44 29.5 73.5t73.5 29.5t72 -28.5t28 -74.5z" />
    <glyph glyph-name="Aring" unicode="&#xc5;" horiz-adv-x="1294" 
d="M1096 0l-176 430h-562l-176 -430h-178l578 1366h131l575 -1366h-192zM416 575h446l-112 287q-92 226 -109 287q-1 -3 -18.5 -48.5t-44.5 -116t-48 -122.5zM446 1599q0 82 59 134.5t140 52.5q84 0 143.5 -52t59.5 -135q0 -84 -59.5 -137t-141.5 -53t-141.5 53t-59.5 137z
M537 1599q0 -48 31.5 -79t76.5 -31q48 0 78.5 29t30.5 81q0 47 -31 78t-76 31q-47 0 -78.5 -29.5t-31.5 -79.5z" />
    <glyph glyph-name="AE" unicode="&#xc6;" horiz-adv-x="1845" 
d="M985 469h-493l-297 -469h-195l885 1366h839v-152h-561v-426h506v-145h-506v-491h649l-22 -152h-805v469zM985 1245l-401 -631h401v631z" />
    <glyph glyph-name="Ccedilla" unicode="&#xc7;" horiz-adv-x="1247" 
d="M907 -250q0 -80 -62.5 -125t-152.5 -45q-39 0 -73.5 4t-48.5 8l-15 5l18 90q50 -19 101 -19q49 0 74.5 23t25.5 57q0 31 -28.5 48.5t-71.5 17.5l-51 -4l59 170q-265 34 -428.5 228t-163.5 474q0 202 88.5 364t248 254.5t361.5 92.5q225 0 422 -117l-88 -148
q-85 51 -162 75t-169 24q-233 0 -370.5 -150t-137.5 -385t148 -393t382 -158q180 0 334 105l76 -142q-191 -133 -435 -133q-3 0 -8 1t-8 1l-33 -100q11 2 27 2q66 0 103.5 -34t37.5 -91z" />
    <glyph glyph-name="Egrave" unicode="&#xc8;" horiz-adv-x="1021" 
d="M989 154l-24 -154h-803v1366h739v-152h-561v-426h504v-145h-504v-489h649zM569 1505l-350 269l156 51l305 -275z" />
    <glyph glyph-name="Eacute" unicode="&#xc9;" horiz-adv-x="1021" 
d="M874 1774l-352 -269l-108 45l307 275zM989 154l-24 -154h-803v1366h739v-152h-561v-426h504v-145h-504v-489h649z" />
    <glyph glyph-name="Ecircumflex" unicode="&#xca;" horiz-adv-x="1021" 
d="M582 1821l247 -301l-133 -25l-178 215l-178 -215l-125 25l252 301h115zM989 154l-24 -154h-803v1366h739v-152h-561v-426h504v-145h-504v-489h649z" />
    <glyph glyph-name="Edieresis" unicode="&#xcb;" horiz-adv-x="1021" 
d="M436 1647q0 -45 -28 -73t-74 -28q-44 0 -73.5 29t-29.5 72q0 44 29.5 73t73.5 29q46 0 74 -28t28 -74zM815 1647q0 -43 -28 -72t-72 -29t-73.5 29t-29.5 72q0 44 29.5 73t73.5 29t72 -28t28 -74zM989 154l-24 -154h-803v1366h739v-152h-561v-426h504v-145h-504v-489h649z
" />
    <glyph glyph-name="Igrave" unicode="&#xcc;" horiz-adv-x="501" 
d="M340 0h-180v1366h180v-1366zM311 1505l-350 269l156 51l305 -275z" />
    <glyph glyph-name="Iacute" unicode="&#xcd;" horiz-adv-x="501" 
d="M340 0h-180v1366h180v-1366zM541 1774l-353 -269l-108 45l307 275z" />
    <glyph glyph-name="Icircumflex" unicode="&#xce;" horiz-adv-x="501" 
d="M340 0h-180v1366h180v-1366zM311 1821l248 -301l-133 -25l-178 215l-178 -215l-125 25l252 301h114z" />
    <glyph glyph-name="Idieresis" unicode="&#xcf;" horiz-adv-x="501" 
d="M340 0h-180v1366h180v-1366zM186 1647q0 -45 -28 -73t-74 -28q-44 0 -73 29t-29 72q0 44 29 73t73 29q46 0 74 -28t28 -74zM524 1647q0 -43 -28 -72t-72 -29t-73 29t-29 72q0 44 29 73t73 29t72 -28t28 -74z" />
    <glyph glyph-name="Eth" unicode="&#xd0;" horiz-adv-x="1419" 
d="M6 639v145h156v576q222 16 334 16q379 0 585 -162q119 -94 182.5 -232.5t63.5 -309.5q0 -167 -68 -310.5t-200 -238.5q-181 -133 -574 -133q-136 0 -323 18v631h-156zM1137 662q0 120 -33.5 216t-93 160.5t-144 107.5t-182.5 62t-213 19q-54 0 -129 -6v-437h401v-145
h-401v-487q114 -15 201 -15q282 0 438 135t156 390z" />
    <glyph glyph-name="Ntilde" unicode="&#xd1;" horiz-adv-x="1495" 
d="M1233 -18l-721 856q-38 44 -86.5 103t-77.5 95l-29 37q9 -181 9 -328v-745h-166v1356l106 28l699 -827l209 -258q-7 176 -7 317v750h164v-1354zM989 1724l90 -34q-26 -80 -77.5 -131.5t-127.5 -51.5q-36 0 -74 16t-65 35.5t-61.5 35.5t-63.5 16q-66 0 -106 -105l-90 37
q63 184 209 184q43 0 89.5 -25.5t91 -51t81.5 -25.5q69 0 104 100z" />
    <glyph glyph-name="Ograve" unicode="&#xd2;" horiz-adv-x="1574" 
d="M1483 684q0 -207 -86 -368t-246 -252t-369 -91q-201 0 -360 94t-245.5 256.5t-86.5 362.5q0 204 91.5 365.5t254 251.5t367.5 90q198 0 354.5 -95t241 -256.5t84.5 -357.5zM1290 664q0 112 -35 214.5t-99 181.5t-162.5 126t-217.5 47q-150 0 -263 -68.5t-171.5 -186.5
t-58.5 -267q0 -117 36.5 -221.5t102.5 -183.5t166 -125t221 -46q112 0 204 41.5t152 114t92.5 168t32.5 205.5zM817 1505l-350 269l156 51l305 -275z" />
    <glyph glyph-name="Oacute" unicode="&#xd3;" horiz-adv-x="1574" 
d="M1112 1774l-352 -269l-109 45l307 275zM1483 684q0 -207 -86 -368t-246 -252t-369 -91q-201 0 -360 94t-245.5 256.5t-86.5 362.5q0 204 91.5 365.5t254 251.5t367.5 90q198 0 354.5 -95t241 -256.5t84.5 -357.5zM1290 664q0 112 -35 214.5t-99 181.5t-162.5 126
t-217.5 47q-150 0 -263 -68.5t-171.5 -186.5t-58.5 -267q0 -117 36.5 -221.5t102.5 -183.5t166 -125t221 -46q112 0 204 41.5t152 114t92.5 168t32.5 205.5z" />
    <glyph glyph-name="Ocircumflex" unicode="&#xd4;" horiz-adv-x="1574" 
d="M868 1821l248 -301l-133 -25l-178 215l-178 -215l-125 25l252 301h114zM1483 684q0 -207 -86 -368t-246 -252t-369 -91q-201 0 -360 94t-245.5 256.5t-86.5 362.5q0 204 91.5 365.5t254 251.5t367.5 90q198 0 354.5 -95t241 -256.5t84.5 -357.5zM1290 664
q0 112 -35 214.5t-99 181.5t-162.5 126t-217.5 47q-150 0 -263 -68.5t-171.5 -186.5t-58.5 -267q0 -117 36.5 -221.5t102.5 -183.5t166 -125t221 -46q112 0 204 41.5t152 114t92.5 168t32.5 205.5z" />
    <glyph glyph-name="Otilde" unicode="&#xd5;" horiz-adv-x="1574" 
d="M1483 684q0 -207 -86 -368t-246 -252t-369 -91q-201 0 -360 94t-245.5 256.5t-86.5 362.5q0 204 91.5 365.5t254 251.5t367.5 90q198 0 354.5 -95t241 -256.5t84.5 -357.5zM1290 664q0 112 -35 214.5t-99 181.5t-162.5 126t-217.5 47q-150 0 -263 -68.5t-171.5 -186.5
t-58.5 -267q0 -117 36.5 -221.5t102.5 -183.5t166 -125t221 -46q112 0 204 41.5t152 114t92.5 168t32.5 205.5zM1047 1745l90 -35q-26 -80 -77.5 -131t-127.5 -51q-45 0 -92.5 25.5t-91.5 51t-80 25.5q-67 0 -107 -104l-90 37q63 184 209 184q43 0 89.5 -25.5t91 -51
t81.5 -25.5q70 0 105 100z" />
    <glyph glyph-name="Odieresis" unicode="&#xd6;" horiz-adv-x="1574" 
d="M715 1647q0 -44 -28.5 -72.5t-74.5 -28.5q-44 0 -73 29t-29 72q0 44 29 73t73 29q46 0 74.5 -28t28.5 -74zM1094 1647q0 -43 -28.5 -72t-72.5 -29t-73 29t-29 72q0 44 29 73t73 29q45 0 73 -28.5t28 -73.5zM1483 684q0 -207 -86 -368t-246 -252t-369 -91q-201 0 -360 94
t-245.5 256.5t-86.5 362.5q0 204 91.5 365.5t254 251.5t367.5 90q198 0 354.5 -95t241 -256.5t84.5 -357.5zM1290 664q0 112 -35 214.5t-99 181.5t-162.5 126t-217.5 47q-150 0 -263 -68.5t-171.5 -186.5t-58.5 -267q0 -117 36.5 -221.5t102.5 -183.5t166 -125t221 -46
q112 0 204 41.5t152 114t92.5 168t32.5 205.5z" />
    <glyph glyph-name="multiply" unicode="&#xd7;" horiz-adv-x="1101" 
d="M279 102l-86 88l268 269l-271 270l93 94l270 -272l268 268l88 -86l-268 -268l270 -270l-92 -95l-272 271z" />
    <glyph glyph-name="Oslash" unicode="&#xd8;" horiz-adv-x="1572" 
d="M1483 684q0 -155 -50.5 -286.5t-141.5 -225t-222 -146.5t-287 -53q-200 0 -358 93l-113 -150l-157 31l153 205q-104 98 -160.5 235.5t-56.5 298.5q0 204 91.5 365.5t254 251.5t367.5 90q189 0 344 -90l115 153l155 -33l-153 -209q104 -98 161.5 -235.5t57.5 -294.5z
M1153 1063l-625 -852q121 -76 281 -76q112 0 204 41.5t152 114t92.5 168t32.5 205.5q0 113 -35.5 216.5t-101.5 182.5zM418 309l624 850q-117 74 -266 74q-151 0 -264 -69t-171 -186.5t-58 -266.5q0 -242 135 -402z" />
    <glyph glyph-name="Ugrave" unicode="&#xd9;" horiz-adv-x="1423" 
d="M1272 1366v-817q0 -149 -29.5 -256t-118.5 -187q-150 -135 -411 -135q-339 0 -477 199q-84 116 -84 381v815h182v-815q0 -119 19 -197.5t77 -132.5q102 -96 287 -96q194 0 289 104q84 91 84 322v815h182zM743 1475l-350 268l156 51l305 -274z" />
    <glyph glyph-name="Uacute" unicode="&#xda;" horiz-adv-x="1423" 
d="M1040 1743l-352 -268l-108 45l307 274zM1272 1366v-817q0 -149 -29.5 -256t-118.5 -187q-150 -135 -411 -135q-339 0 -477 199q-84 116 -84 381v815h182v-815q0 -119 19 -197.5t77 -132.5q102 -96 287 -96q194 0 289 104q84 91 84 322v815h182z" />
    <glyph glyph-name="Ucircumflex" unicode="&#xdb;" horiz-adv-x="1423" 
d="M770 1821l248 -301l-133 -25l-178 215l-179 -215l-125 25l252 301h115zM1272 1366v-817q0 -149 -29.5 -256t-118.5 -187q-150 -135 -411 -135q-339 0 -477 199q-84 116 -84 381v815h182v-815q0 -119 19 -197.5t77 -132.5q102 -96 287 -96q194 0 289 104q84 91 84 322v815
h182z" />
    <glyph glyph-name="Udieresis" unicode="&#xdc;" horiz-adv-x="1423" 
d="M623 1647q0 -44 -28.5 -72.5t-74.5 -28.5q-44 0 -73 29t-29 72q0 44 29 73t73 29q46 0 74.5 -28t28.5 -74zM1001 1647q0 -43 -28 -72t-72 -29t-73 29t-29 72q0 44 29 73t73 29t72 -28t28 -74zM1272 1366v-817q0 -149 -29.5 -256t-118.5 -187q-150 -135 -411 -135
q-339 0 -477 199q-84 116 -84 381v815h182v-815q0 -119 19 -197.5t77 -132.5q102 -96 287 -96q194 0 289 104q84 91 84 322v815h182z" />
    <glyph glyph-name="Yacute" unicode="&#xdd;" horiz-adv-x="1165" 
d="M1163 1352l-487 -734v-618h-182v618l-490 734l182 34l279 -419q38 -57 129 -209q7 21 129 211l276 417zM913 1753l-352 -268l-108 45l307 274z" />
    <glyph glyph-name="Thorn" unicode="&#xde;" horiz-adv-x="1081" 
d="M1020 721q0 -89 -27 -161t-74 -121.5t-112.5 -83t-141.5 -49t-163 -15.5q-116 0 -162 6v-297h-180v1366h180v-240q93 7 158 7q195 0 321 -66q201 -101 201 -346zM840 709q0 76 -28 130.5t-78.5 85t-110.5 44.5t-134 14q-68 0 -149 -6v-537q54 -6 123 -6q76 0 138.5 13
t118.5 42t88 85t32 135z" />
    <glyph glyph-name="germandbls" unicode="&#xdf;" horiz-adv-x="1021" 
d="M999 274q0 -133 -95.5 -212.5t-231.5 -79.5q-153 0 -271 92l45 127q99 -86 207 -86q76 0 123 43t47 118q0 38 -17.5 75t-46 68.5t-63 63.5t-68.5 65t-62.5 67t-46 75t-17.5 84q0 47 23.5 89t57 75.5t66.5 67.5t56.5 78t23.5 94q0 77 -53 121t-133 44q-70 0 -118.5 -28
t-73 -79.5t-34.5 -110t-10 -134.5v-1503h-170v1501q0 84 11 152.5t39 132t73.5 107t118 69t168.5 25.5q152 0 249 -77t97 -210q0 -59 -23 -110t-56.5 -87t-66.5 -67t-56 -63t-23 -62q0 -26 18.5 -56t47.5 -60t64 -63.5t70.5 -72t64.5 -79.5t47.5 -91.5t18.5 -102.5z" />
    <glyph glyph-name="agrave" unicode="&#xe0;" horiz-adv-x="909" 
d="M870 -16q-44 -11 -86 -11q-65 0 -112 27t-58 84q-73 -56 -136 -83.5t-142 -27.5q-122 0 -196 76t-74 197q0 51 13 93.5t39 74t56 56t74 42t81.5 29t90.5 20t88.5 12.5t87.5 9v39q0 101 -39.5 148.5t-148.5 47.5q-71 0 -137 -25.5t-154 -74.5v143q177 92 327 92
q191 0 269 -114q51 -64 51 -228v-370q0 -31 1 -48t5.5 -39.5t14 -34t27.5 -20t44 -8.5l37 4zM596 182v297q-45 -4 -77 -9t-80 -15t-80.5 -26t-64.5 -39t-48.5 -58.5t-16.5 -79.5q0 -69 46 -110.5t116 -41.5q89 0 205 82zM453 1059l-301 270l151 47l256 -272z" />
    <glyph glyph-name="aacute" unicode="&#xe1;" horiz-adv-x="909" 
d="M870 -16q-44 -11 -86 -11q-65 0 -112 27t-58 84q-73 -56 -136 -83.5t-142 -27.5q-122 0 -196 76t-74 197q0 51 13 93.5t39 74t56 56t74 42t81.5 29t90.5 20t88.5 12.5t87.5 9v39q0 101 -39.5 148.5t-148.5 47.5q-71 0 -137 -25.5t-154 -74.5v143q177 92 327 92
q191 0 269 -114q51 -64 51 -228v-370q0 -31 1 -48t5.5 -39.5t14 -34t27.5 -20t44 -8.5l37 4zM596 182v297q-45 -4 -77 -9t-80 -15t-80.5 -26t-64.5 -39t-48.5 -58.5t-16.5 -79.5q0 -69 46 -110.5t116 -41.5q89 0 205 82zM737 1329l-299 -270l-108 45l256 272z" />
    <glyph glyph-name="acircumflex" unicode="&#xe2;" horiz-adv-x="909" 
d="M870 -16q-44 -11 -86 -11q-65 0 -112 27t-58 84q-73 -56 -136 -83.5t-142 -27.5q-122 0 -196 76t-74 197q0 51 13 93.5t39 74t56 56t74 42t81.5 29t90.5 20t88.5 12.5t87.5 9v39q0 101 -39.5 148.5t-148.5 47.5q-71 0 -137 -25.5t-154 -74.5v143q177 92 327 92
q191 0 269 -114q51 -64 51 -228v-370q0 -31 1 -48t5.5 -39.5t14 -34t27.5 -20t44 -8.5l37 4zM596 182v297q-45 -4 -77 -9t-80 -15t-80.5 -26t-64.5 -39t-48.5 -58.5t-16.5 -79.5q0 -69 46 -110.5t116 -41.5q89 0 205 82zM502 1389l243 -299l-129 -23l-176 217l-176 -217
l-123 23l248 299h113z" />
    <glyph glyph-name="atilde" unicode="&#xe3;" horiz-adv-x="909" 
d="M870 -16q-44 -11 -86 -11q-65 0 -112 27t-58 84q-73 -56 -136 -83.5t-142 -27.5q-122 0 -196 76t-74 197q0 51 13 93.5t39 74t56 56t74 42t81.5 29t90.5 20t88.5 12.5t87.5 9v39q0 101 -39.5 148.5t-148.5 47.5q-71 0 -137 -25.5t-154 -74.5v143q177 92 327 92
q191 0 269 -114q51 -64 51 -228v-370q0 -31 1 -48t5.5 -39.5t14 -34t27.5 -20t44 -8.5l37 4zM596 182v297q-45 -4 -77 -9t-80 -15t-80.5 -26t-64.5 -39t-48.5 -58.5t-16.5 -79.5q0 -69 46 -110.5t116 -41.5q89 0 205 82zM690 1337l88 -37q-59 -182 -198 -182q-36 0 -74 16.5
t-66 36t-62.5 36t-62.5 16.5q-21 0 -38 -9t-29 -27t-19.5 -33t-15.5 -38l-88 37q30 88 75.5 136t125.5 48q44 0 90.5 -25.5t91 -51t82.5 -25.5q39 0 60.5 26t39.5 76z" />
    <glyph glyph-name="adieresis" unicode="&#xe4;" horiz-adv-x="909" 
d="M870 -16q-44 -11 -86 -11q-65 0 -112 27t-58 84q-73 -56 -136 -83.5t-142 -27.5q-122 0 -196 76t-74 197q0 51 13 93.5t39 74t56 56t74 42t81.5 29t90.5 20t88.5 12.5t87.5 9v39q0 101 -39.5 148.5t-148.5 47.5q-71 0 -137 -25.5t-154 -74.5v143q177 92 327 92
q191 0 269 -114q51 -64 51 -228v-370q0 -31 1 -48t5.5 -39.5t14 -34t27.5 -20t44 -8.5l37 4zM596 182v297q-45 -4 -77 -9t-80 -15t-80.5 -26t-64.5 -39t-48.5 -58.5t-16.5 -79.5q0 -69 46 -110.5t116 -41.5q89 0 205 82zM379 1239q0 -44 -29 -72t-74 -28q-44 0 -73 28
t-29 72q0 45 28.5 73.5t73.5 28.5q44 0 73.5 -29t29.5 -73zM737 1239q0 -44 -28 -72t-72 -28q-45 0 -75 28t-30 72t29.5 73t73.5 29q45 0 73.5 -28.5t28.5 -73.5z" />
    <glyph glyph-name="aring" unicode="&#xe5;" horiz-adv-x="909" 
d="M870 -16q-44 -11 -86 -11q-65 0 -112 27t-58 84q-73 -56 -136 -83.5t-142 -27.5q-122 0 -196 76t-74 197q0 51 13 93.5t39 74t56 56t74 42t81.5 29t90.5 20t88.5 12.5t87.5 9v39q0 101 -39.5 148.5t-148.5 47.5q-71 0 -137 -25.5t-154 -74.5v143q177 92 327 92
q191 0 269 -114q51 -64 51 -228v-370q0 -31 1 -48t5.5 -39.5t14 -34t27.5 -20t44 -8.5l37 4zM596 182v297q-45 -4 -77 -9t-80 -15t-80.5 -26t-64.5 -39t-48.5 -58.5t-16.5 -79.5q0 -69 46 -110.5t116 -41.5q89 0 205 82zM272 1219q0 82 59 134t140 52q84 0 143.5 -51.5
t59.5 -134.5q0 -82 -59.5 -135.5t-141.5 -53.5t-141.5 53.5t-59.5 135.5zM362 1219q0 -49 31.5 -80t77.5 -31q48 0 79.5 29.5t31.5 81.5q0 48 -32 79t-77 31q-49 0 -80 -29t-31 -81z" />
    <glyph glyph-name="ae" unicode="&#xe6;" horiz-adv-x="1499" 
d="M1444 127q-142 -154 -367 -154q-114 0 -198.5 37.5t-155.5 122.5q-88 -84 -171 -122t-198 -38q-125 0 -206.5 73t-81.5 196q0 59 20 107.5t49.5 81t78 58.5t91.5 40.5t106 25.5t104.5 15.5t102.5 9.5q3 15 3 45q0 96 -49.5 146t-143.5 50q-126 0 -287 -86v131
q159 86 316 86q222 0 274 -164q128 164 332 164q174 0 274.5 -109.5t106.5 -285.5l-60 -80h-602q-6 -157 83.5 -260.5t244.5 -103.5q78 0 141.5 26t128.5 80zM1292 590q-9 105 -72.5 169t-168.5 64t-172 -63.5t-91 -169.5h504zM666 219q-55 120 -52 258q-162 -17 -235 -44
q-147 -55 -148 -179q0 -72 50 -115t122 -43q78 0 139 31t124 92z" />
    <glyph glyph-name="ccedilla" unicode="&#xe7;" horiz-adv-x="874" 
d="M684 -250q0 -80 -62.5 -125t-152.5 -45q-39 0 -73.5 4t-49.5 8l-14 5l18 90q50 -19 101 -19q49 0 74.5 23t25.5 57q0 31 -28.5 48.5t-71.5 17.5l-52 -4l60 170q-178 26 -279.5 155.5t-101.5 317.5q0 135 59 249t166.5 182t241.5 68q73 0 141.5 -18t101.5 -35t58 -35
l-62 -119q-102 66 -227 66q-96 0 -167.5 -50.5t-105.5 -127t-34 -166.5q0 -96 36 -175t109.5 -128t171.5 -49q20 0 40.5 2.5t36.5 6.5t34.5 10.5t30.5 11.5t27.5 13.5t22.5 12.5t20 12t14 9l59 -117q-131 -101 -303 -103l-33 -100q11 2 27 2q66 0 103.5 -34t37.5 -91z" />
    <glyph glyph-name="egrave" unicode="&#xe8;" horiz-adv-x="972" 
d="M848 219l63 -96q-55 -61 -152.5 -105.5t-221.5 -44.5q-142 0 -247.5 64.5t-158.5 173.5t-53 246q0 132 51.5 243.5t154.5 181.5t240 70q94 0 167.5 -33t114.5 -79.5t67.5 -105t35 -100.5t9.5 -75l-68 -84h-602q-2 -153 88 -257.5t237 -104.5t275 106zM760 590
q-8 105 -72 169t-168 64t-171 -63t-93 -170h504zM537 1059l-301 270l151 47l256 -272z" />
    <glyph glyph-name="eacute" unicode="&#xe9;" horiz-adv-x="972" 
d="M788 1329l-299 -270l-108 45l256 272zM848 219l63 -96q-55 -61 -152.5 -105.5t-221.5 -44.5q-142 0 -247.5 64.5t-158.5 173.5t-53 246q0 132 51.5 243.5t154.5 181.5t240 70q94 0 167.5 -33t114.5 -79.5t67.5 -105t35 -100.5t9.5 -75l-68 -84h-602q-2 -153 88 -257.5
t237 -104.5t275 106zM760 590q-8 105 -72 169t-168 64t-171 -63t-93 -170h504z" />
    <glyph glyph-name="ecircumflex" unicode="&#xea;" horiz-adv-x="972" 
d="M584 1389l243 -299l-129 -23l-176 217l-176 -217l-123 23l248 299h113zM848 219l63 -96q-55 -61 -152.5 -105.5t-221.5 -44.5q-142 0 -247.5 64.5t-158.5 173.5t-53 246q0 132 51.5 243.5t154.5 181.5t240 70q94 0 167.5 -33t114.5 -79.5t67.5 -105t35 -100.5t9.5 -75
l-68 -84h-602q-2 -153 88 -257.5t237 -104.5t275 106zM760 590q-8 105 -72 169t-168 64t-171 -63t-93 -170h504z" />
    <glyph glyph-name="edieresis" unicode="&#xeb;" horiz-adv-x="972" 
d="M444 1239q0 -44 -29 -72t-73 -28t-73 28t-29 72q0 45 28.5 73.5t73.5 28.5q44 0 73 -29t29 -73zM803 1239q0 -44 -28.5 -72t-72.5 -28q-45 0 -74.5 28t-29.5 72t29 73t73 29q46 0 74.5 -28.5t28.5 -73.5zM848 219l63 -96q-55 -61 -152.5 -105.5t-221.5 -44.5
q-142 0 -247.5 64.5t-158.5 173.5t-53 246q0 132 51.5 243.5t154.5 181.5t240 70q94 0 167.5 -33t114.5 -79.5t67.5 -105t35 -100.5t9.5 -75l-68 -84h-602q-2 -153 88 -257.5t237 -104.5t275 106zM760 590q-8 105 -72 169t-168 64t-171 -63t-93 -170h504z" />
    <glyph glyph-name="igrave" unicode="&#xec;" horiz-adv-x="448" 
d="M309 0h-170v926h170v-926zM283 1059l-301 270l151 47l256 -272z" />
    <glyph glyph-name="iacute" unicode="&#xed;" horiz-adv-x="448" 
d="M467 1329l-299 -270l-109 45l256 272zM309 0h-170v926h170v-926z" />
    <glyph glyph-name="icircumflex" unicode="&#xee;" horiz-adv-x="448" 
d="M283 1389l223 -299l-129 -23l-156 217l-155 -217l-123 23l227 299h113zM309 0h-170v926h170v-926z" />
    <glyph glyph-name="idieresis" unicode="&#xef;" horiz-adv-x="448" 
d="M180 1239q0 -44 -29 -72t-73 -28q-45 0 -74 28t-29 72q0 45 28.5 73.5t74.5 28.5q44 0 73 -29t29 -73zM477 1239q0 -44 -28 -72t-72 -28q-45 0 -75 28t-30 72t29.5 73t73.5 29q45 0 73.5 -28.5t28.5 -73.5zM309 0h-170v926h170v-926z" />
    <glyph glyph-name="eth" unicode="&#xf0;" horiz-adv-x="1103" 
d="M293 1044l-62 99l209 110q-99 57 -233 97l65 125q176 -44 322 -138l240 129l59 -96l-199 -108q165 -139 249.5 -340.5t84.5 -438.5q0 -229 -128 -369.5t-351 -140.5q-216 0 -343.5 135.5t-127.5 348.5q0 204 127 343.5t325 139.5q47 0 88.5 -7t67 -16.5t44 -19
t26.5 -16.5l8 -7q-63 185 -217 308zM854 442q0 158 -80 261.5t-227 103.5q-137 0 -217 -93.5t-80 -234.5q0 -157 86.5 -265t230.5 -108q72 0 129 29.5t90.5 79t50.5 107.5t17 120z" />
    <glyph glyph-name="ntilde" unicode="&#xf1;" horiz-adv-x="1077" 
d="M946 0h-172v559q0 250 -203 250q-78 0 -136 -34t-116 -101v-674h-172v651q0 84 -11 144t-48 106l148 53q63 -45 71 -157q72 77 148 116t172 39q179 0 264 -129q55 -86 55 -202v-621zM764 1337l88 -37q-59 -182 -199 -182q-36 0 -74 16.5t-65.5 36t-62 36t-62.5 16.5
q-21 0 -38 -9t-29 -27t-19.5 -33t-15.5 -38l-88 37q30 88 75.5 136t124.5 48q44 0 91 -25.5t91.5 -51t82.5 -25.5q39 0 60.5 26t39.5 76z" />
    <glyph glyph-name="ograve" unicode="&#xf2;" horiz-adv-x="1103" 
d="M1028 463q0 -211 -130 -350.5t-343 -139.5t-345 136.5t-132 351.5q0 214 133 352.5t350 138.5q213 0 340 -139t127 -350zM854 457q0 71 -19 135.5t-56 116t-97.5 82t-136.5 30.5q-135 0 -214 -99t-79 -239q0 -101 35 -185.5t108 -139t172 -54.5q136 0 211.5 100.5
t75.5 252.5zM557 1059l-301 270l152 47l256 -272z" />
    <glyph glyph-name="oacute" unicode="&#xf3;" horiz-adv-x="1103" 
d="M831 1329l-299 -270l-108 45l256 272zM1028 463q0 -211 -130 -350.5t-343 -139.5t-345 136.5t-132 351.5q0 214 133 352.5t350 138.5q213 0 340 -139t127 -350zM854 457q0 71 -19 135.5t-56 116t-97.5 82t-136.5 30.5q-135 0 -214 -99t-79 -239q0 -101 35 -185.5
t108 -139t172 -54.5q136 0 211.5 100.5t75.5 252.5z" />
    <glyph glyph-name="ocircumflex" unicode="&#xf4;" horiz-adv-x="1103" 
d="M612 1389l244 -299l-129 -23l-176 217l-176 -217l-123 23l248 299h112zM1028 463q0 -211 -130 -350.5t-343 -139.5t-345 136.5t-132 351.5q0 214 133 352.5t350 138.5q213 0 340 -139t127 -350zM854 457q0 71 -19 135.5t-56 116t-97.5 82t-136.5 30.5q-135 0 -214 -99
t-79 -239q0 -101 35 -185.5t108 -139t172 -54.5q136 0 211.5 100.5t75.5 252.5z" />
    <glyph glyph-name="otilde" unicode="&#xf5;" horiz-adv-x="1103" 
d="M1028 463q0 -211 -130 -350.5t-343 -139.5t-345 136.5t-132 351.5q0 214 133 352.5t350 138.5q213 0 340 -139t127 -350zM854 457q0 71 -19 135.5t-56 116t-97.5 82t-136.5 30.5q-135 0 -214 -99t-79 -239q0 -101 35 -185.5t108 -139t172 -54.5q136 0 211.5 100.5
t75.5 252.5zM799 1337l88 -37q-59 -182 -199 -182q-36 0 -74 16.5t-65.5 36t-62 36t-62.5 16.5q-21 0 -38 -9t-29 -27t-19.5 -33t-15.5 -38l-89 37q30 88 75.5 136t125.5 48q44 0 90.5 -25.5t91 -51t82.5 -25.5q39 0 61 26.5t40 75.5z" />
    <glyph glyph-name="odieresis" unicode="&#xf6;" horiz-adv-x="1103" 
d="M485 1239q0 -44 -29 -72t-73 -28t-73 28t-29 72q0 45 28.5 73.5t73.5 28.5q44 0 73 -29t29 -73zM844 1239q0 -44 -28.5 -72t-72.5 -28q-45 0 -74.5 28t-29.5 72t29 73t73 29q45 0 74 -28.5t29 -73.5zM1028 463q0 -211 -130 -350.5t-343 -139.5t-345 136.5t-132 351.5
q0 214 133 352.5t350 138.5q213 0 340 -139t127 -350zM854 457q0 71 -19 135.5t-56 116t-97.5 82t-136.5 30.5q-135 0 -214 -99t-79 -239q0 -101 35 -185.5t108 -139t172 -54.5q136 0 211.5 100.5t75.5 252.5z" />
    <glyph glyph-name="divide" unicode="&#xf7;" horiz-adv-x="1101" 
d="M954 401h-807v121h807v-121zM649 741q0 -44 -27.5 -74t-72.5 -30t-74 29.5t-29 74.5q0 46 29 76.5t74 30.5t72.5 -30t27.5 -77zM651 174q0 -45 -28.5 -73.5t-73.5 -28.5t-75 28.5t-30 73.5t29.5 73.5t75.5 28.5t74 -28t28 -74z" />
    <glyph glyph-name="oslash" unicode="&#xf8;" horiz-adv-x="1103" 
d="M1028 463q0 -211 -130 -350.5t-343 -139.5q-140 0 -252 64l-86 -117l-123 33l117 156q-133 133 -133 352q0 214 133 352.5t350 138.5q133 0 238 -59l78 102l120 -32l-106 -142q137 -137 137 -358zM854 457q0 133 -61 231l-398 -530q74 -54 172 -54q136 0 211.5 100.5
t75.5 252.5zM252 483q0 -136 61 -237l398 528q-73 47 -166 47q-135 0 -214 -99t-79 -239z" />
    <glyph glyph-name="ugrave" unicode="&#xf9;" horiz-adv-x="1067" 
d="M1042 94l-22 -108q-43 -13 -88 -13q-155 0 -174 136q-68 -65 -137.5 -100.5t-159.5 -35.5q-330 0 -330 340v613h170v-578q0 -231 201 -231q74 0 125 27t114 87v695h172v-684q0 -32 1 -50t6 -40.5t14.5 -34t27.5 -19.5t44 -8zM512 1059l-301 270l151 47l256 -272z" />
    <glyph glyph-name="uacute" unicode="&#xfa;" horiz-adv-x="1067" 
d="M815 1329l-299 -270l-108 45l256 272zM1042 94l-22 -108q-43 -13 -88 -13q-155 0 -174 136q-68 -65 -137.5 -100.5t-159.5 -35.5q-330 0 -330 340v613h170v-578q0 -231 201 -231q74 0 125 27t114 87v695h172v-684q0 -32 1 -50t6 -40.5t14.5 -34t27.5 -19.5t44 -8z" />
    <glyph glyph-name="ucircumflex" unicode="&#xfb;" horiz-adv-x="1067" 
d="M588 1389l243 -299l-129 -23l-176 217l-176 -217l-123 23l248 299h113zM1042 94l-22 -108q-43 -13 -88 -13q-155 0 -174 136q-68 -65 -137.5 -100.5t-159.5 -35.5q-330 0 -330 340v613h170v-578q0 -231 201 -231q74 0 125 27t114 87v695h172v-684q0 -32 1 -50t6 -40.5
t14.5 -34t27.5 -19.5t44 -8z" />
    <glyph glyph-name="udieresis" unicode="&#xfc;" horiz-adv-x="1067" 
d="M457 1239q0 -44 -29 -72t-74 -28q-44 0 -73 28t-29 72q0 45 28.5 73.5t73.5 28.5q44 0 73.5 -29t29.5 -73zM815 1239q0 -44 -28 -72t-72 -28q-45 0 -75 28t-30 72t29.5 73t73.5 29q45 0 73.5 -28.5t28.5 -73.5zM1042 94l-22 -108q-43 -13 -88 -13q-155 0 -174 136
q-68 -65 -137.5 -100.5t-159.5 -35.5q-330 0 -330 340v613h170v-578q0 -231 201 -231q74 0 125 27t114 87v695h172v-684q0 -32 1 -50t6 -40.5t14.5 -34t27.5 -19.5t44 -8z" />
    <glyph glyph-name="yacute" unicode="&#xfd;" horiz-adv-x="913" 
d="M895 909l-428 -1048q-24 -58 -47.5 -103t-58 -92t-72.5 -77.5t-90.5 -50t-112.5 -19.5q-47 0 -129 16l27 127q44 -12 94 -12q40 0 75.5 18.5t60 43t49 66.5t37 70t30.5 72l41 98l-353 891l168 33l181 -475q13 -34 26.5 -72t24.5 -70t19 -58t14 -44.5t6 -19.5
q2 7 14.5 45.5t35 102.5t42.5 114l186 477zM745 1309l-299 -271l-108 45l256 273z" />
    <glyph glyph-name="thorn" unicode="&#xfe;" horiz-adv-x="1062" 
d="M989 483q0 -137 -56 -252.5t-163.5 -186.5t-245.5 -71q-65 0 -112.5 10t-110.5 35v-530h-172v1960h172v-586q121 90 266 90q129 0 226.5 -65t146.5 -170.5t49 -233.5zM813 471q0 90 -33 166.5t-102 126t-162 49.5q-104 0 -215 -70v-577q95 -62 207 -62q143 0 224 107.5
t81 259.5z" />
    <glyph glyph-name="ydieresis" unicode="&#xff;" horiz-adv-x="913" 
d="M895 909l-428 -1048q-24 -58 -47.5 -103t-58 -92t-72.5 -77.5t-90.5 -50t-112.5 -19.5q-47 0 -129 16l27 127q44 -12 94 -12q40 0 75.5 18.5t60 43t49 66.5t37 70t30.5 72l41 98l-353 891l168 33l181 -475q22 -56 44.5 -122t34.5 -104l11 -38q47 149 92 262l186 477z
M379 1239q0 -44 -29 -72t-74 -28q-44 0 -73 28t-29 72q0 45 28.5 73.5t73.5 28.5q44 0 73.5 -29t29.5 -73zM737 1239q0 -44 -28 -72t-72 -28q-45 0 -75 28t-30 72t29.5 73t73.5 29q45 0 73.5 -28.5t28.5 -73.5z" />
    <glyph glyph-name="Amacron" unicode="&#x100;" horiz-adv-x="1294" 
d="M1096 0l-176 430h-562l-176 -430h-178l578 1366h131l575 -1366h-192zM416 575h446l-112 287q-92 226 -109 287q-1 -3 -18.5 -48.5t-44.5 -116t-48 -122.5zM909 1569h-530v117h530v-117z" />
    <glyph glyph-name="amacron" unicode="&#x101;" horiz-adv-x="909" 
d="M870 -16q-44 -11 -86 -11q-65 0 -112 27t-58 84q-73 -56 -136 -83.5t-142 -27.5q-122 0 -196 76t-74 197q0 51 13 93.5t39 74t56 56t74 42t81.5 29t90.5 20t88.5 12.5t87.5 9v39q0 101 -39.5 148.5t-148.5 47.5q-71 0 -137 -25.5t-154 -74.5v143q177 92 327 92
q191 0 269 -114q51 -64 51 -228v-370q0 -31 1 -48t5.5 -39.5t14 -34t27.5 -20t44 -8.5l37 4zM596 182v297q-45 -4 -77 -9t-80 -15t-80.5 -26t-64.5 -39t-48.5 -58.5t-16.5 -79.5q0 -69 46 -110.5t116 -41.5q89 0 205 82zM711 1167h-531v115h531v-115z" />
    <glyph glyph-name="Abreve" unicode="&#x102;" horiz-adv-x="1294" 
d="M1096 0l-176 430h-562l-176 -430h-178l578 1366h131l575 -1366h-192zM416 575h446l-112 287q-92 226 -109 287q-1 -3 -18.5 -48.5t-44.5 -116t-48 -122.5zM825 1763l109 -12q-11 -125 -85.5 -192.5t-207.5 -67.5q-123 0 -199.5 67t-85.5 191l113 14q30 -155 174 -155
q82 0 122.5 38.5t59.5 116.5z" />
    <glyph glyph-name="abreve" unicode="&#x103;" horiz-adv-x="909" 
d="M870 -16q-44 -11 -86 -11q-65 0 -112 27t-58 84q-73 -56 -136 -83.5t-142 -27.5q-122 0 -196 76t-74 197q0 51 13 93.5t39 74t56 56t74 42t81.5 29t90.5 20t88.5 12.5t87.5 9v39q0 101 -39.5 148.5t-148.5 47.5q-71 0 -137 -25.5t-154 -74.5v143q177 92 327 92
q191 0 269 -114q51 -64 51 -228v-370q0 -31 1 -48t5.5 -39.5t14 -34t27.5 -20t44 -8.5l37 4zM596 182v297q-45 -4 -77 -9t-80 -15t-80.5 -26t-64.5 -39t-48.5 -58.5t-16.5 -79.5q0 -69 46 -110.5t116 -41.5q89 0 205 82zM758 1354q-11 -127 -87 -202t-204 -75
q-122 0 -200 74.5t-87 200.5l111 14q13 -79 56.5 -126.5t119.5 -47.5q81 0 123.5 45.5t58.5 128.5z" />
    <glyph glyph-name="Aogonek" unicode="&#x104;" horiz-adv-x="1294" 
d="M1096 0l-176 430h-562l-176 -430h-178l578 1366h131l575 -1366h-192zM416 575h446l-112 287q-92 226 -109 287q-1 -3 -18.5 -48.5t-44.5 -116t-48 -122.5zM1186 0h102q-7 -4 -18 -11.5t-39.5 -31t-50.5 -47t-40 -56t-18 -61.5q0 -37 24.5 -54.5t57.5 -17.5q25 0 48 4.5
t34 9.5l10 5l21 -84q-62 -33 -160 -33q-74 0 -127 32t-53 101q0 41 21.5 81.5t52.5 68.5t61.5 50t51.5 33z" />
    <glyph glyph-name="aogonek" unicode="&#x105;" horiz-adv-x="909" 
d="M870 -16h-2q-7 -4 -21 -14t-39.5 -32t-47 -45.5t-37.5 -55t-16 -60.5q0 -36 24.5 -54t56.5 -18q25 0 48.5 4.5t33.5 9.5l11 5l20 -82q-62 -35 -158 -35q-75 0 -127.5 32.5t-52.5 100.5q0 43 21.5 83.5t56 71t60 48t51.5 32.5q-119 11 -138 109q-73 -56 -136 -83.5
t-142 -27.5q-122 0 -196 76t-74 197q0 51 13 93.5t39 74t56 56t74 42t81.5 29t90.5 20t88.5 12.5t87.5 9v39q0 101 -39.5 148.5t-148.5 47.5q-71 0 -137 -25.5t-154 -74.5v143q177 92 327 92q191 0 269 -114q51 -64 51 -228v-370q0 -31 1 -48t5.5 -39.5t14 -34t27.5 -20
t44 -8.5l37 4zM596 182v297q-45 -4 -77 -9t-80 -15t-80.5 -26t-64.5 -39t-48.5 -58.5t-16.5 -79.5q0 -69 46 -110.5t116 -41.5q89 0 205 82z" />
    <glyph glyph-name="Cacute" unicode="&#x106;" horiz-adv-x="1247" 
d="M1067 1774l-352 -269l-109 45l307 275zM1223 104q-191 -133 -435 -133q-203 0 -362.5 92.5t-247.5 254.5t-88 364t88.5 364t248 254.5t361.5 92.5q225 0 422 -117l-88 -148q-85 51 -162 75t-169 24q-233 0 -370.5 -150t-137.5 -385t148 -393t382 -158q180 0 334 105z" />
    <glyph glyph-name="cacute" unicode="&#x107;" horiz-adv-x="874" 
d="M799 1329l-299 -270l-109 45l256 272zM852 76q-134 -103 -307 -103q-216 0 -341.5 135t-125.5 345q0 135 59 249t166.5 182t241.5 68q73 0 141.5 -18t101.5 -35t58 -35l-62 -119q-102 66 -227 66q-96 0 -167.5 -50.5t-105.5 -127t-34 -166.5q0 -96 36 -175t109.5 -128
t171.5 -49q20 0 40.5 2.5t36.5 6.5t34.5 10.5t30.5 11.5t27.5 13.5t22.5 12.5t20 12t14 9z" />
    <glyph glyph-name="Ccircumflex" unicode="&#x108;" horiz-adv-x="1247" 
d="M831 1821l248 -301l-133 -25l-178 215l-178 -215l-125 25l252 301h114zM1223 104q-191 -133 -435 -133q-203 0 -362.5 92.5t-247.5 254.5t-88 364t88.5 364t248 254.5t361.5 92.5q225 0 422 -117l-88 -148q-85 51 -162 75t-169 24q-233 0 -370.5 -150t-137.5 -385
t148 -393t382 -158q180 0 334 105z" />
    <glyph glyph-name="ccircumflex" unicode="&#x109;" horiz-adv-x="874" 
d="M588 1389l243 -299l-129 -23l-176 217l-176 -217l-123 23l248 299h113zM852 76q-134 -103 -307 -103q-216 0 -341.5 135t-125.5 345q0 135 59 249t166.5 182t241.5 68q73 0 141.5 -18t101.5 -35t58 -35l-62 -119q-102 66 -227 66q-96 0 -167.5 -50.5t-105.5 -127
t-34 -166.5q0 -96 36 -175t109.5 -128t171.5 -49q20 0 40.5 2.5t36.5 6.5t34.5 10.5t30.5 11.5t27.5 13.5t22.5 12.5t20 12t14 9z" />
    <glyph glyph-name="Cdotaccent" unicode="&#x10a;" horiz-adv-x="1247" 
d="M1223 104q-191 -133 -435 -133q-203 0 -362.5 92.5t-247.5 254.5t-88 364t88.5 364t248 254.5t361.5 92.5q225 0 422 -117l-88 -148q-85 51 -162 75t-169 24q-233 0 -370.5 -150t-137.5 -385t148 -393t382 -158q180 0 334 105zM858 1655q0 -45 -29.5 -76t-74.5 -31
q-49 0 -79 30.5t-30 76.5q0 47 30 77.5t77 30.5q46 0 76 -30.5t30 -77.5z" />
    <glyph glyph-name="cdotaccent" unicode="&#x10b;" horiz-adv-x="874" 
d="M852 76q-134 -103 -307 -103q-216 0 -341.5 135t-125.5 345q0 135 59 249t166.5 182t241.5 68q73 0 141.5 -18t101.5 -35t58 -35l-62 -119q-102 66 -227 66q-96 0 -167.5 -50.5t-105.5 -127t-34 -166.5q0 -96 36 -175t109.5 -128t171.5 -49q20 0 40.5 2.5t36.5 6.5
t34.5 10.5t30.5 11.5t27.5 13.5t22.5 12.5t20 12t14 9zM635 1239q0 -46 -29.5 -76t-75.5 -30q-49 0 -78.5 29t-29.5 77q0 47 29.5 77t76.5 30q46 0 76.5 -30.5t30.5 -76.5z" />
    <glyph glyph-name="Ccaron" unicode="&#x10c;" horiz-adv-x="1247" 
d="M1092 1796l-248 -301h-117l-250 301l135 25l179 -217l180 215zM1223 104q-191 -133 -435 -133q-203 0 -362.5 92.5t-247.5 254.5t-88 364t88.5 364t248 254.5t361.5 92.5q225 0 422 -117l-88 -148q-85 51 -162 75t-169 24q-233 0 -370.5 -150t-137.5 -385t148 -393
t382 -158q180 0 334 105z" />
    <glyph glyph-name="ccaron" unicode="&#x10d;" horiz-adv-x="874" 
d="M850 1366l-242 -299h-114l-248 299l133 23l176 -215l176 215zM852 76q-134 -103 -307 -103q-216 0 -341.5 135t-125.5 345q0 135 59 249t166.5 182t241.5 68q73 0 141.5 -18t101.5 -35t58 -35l-62 -119q-102 66 -227 66q-96 0 -167.5 -50.5t-105.5 -127t-34 -166.5
q0 -96 36 -175t109.5 -128t171.5 -49q20 0 40.5 2.5t36.5 6.5t34.5 10.5t30.5 11.5t27.5 13.5t22.5 12.5t20 12t14 9z" />
    <glyph glyph-name="Dcaron" unicode="&#x10e;" horiz-adv-x="1419" 
d="M913 1796l-247 -301h-117l-250 301l135 25l178 -217l181 215zM1327 672q0 -167 -68 -310.5t-200 -238.5q-181 -133 -574 -133q-136 0 -323 18v1352q222 16 334 16q379 0 585 -162q119 -94 182.5 -232.5t63.5 -309.5zM1137 662q0 120 -33.5 216t-93 160.5t-144 107.5
t-182.5 62t-213 19q-54 0 -129 -6v-1069q114 -15 201 -15q282 0 438 135t156 390z" />
    <glyph glyph-name="dcaron" unicode="&#x10f;" horiz-adv-x="1269" 
d="M1253 1448q-3 -114 -32.5 -221t-69.5 -178l-109 34q64 148 70 365h141zM1063 94l-21 -108q-50 -13 -88 -13q-148 0 -172 115q-121 -115 -288 -115q-97 0 -177.5 39.5t-132.5 107t-80 154t-28 181.5q0 134 56.5 247t163.5 181.5t243 68.5q119 0 225 -59v555h170v-1202
q0 -33 1 -51t6 -41.5t14.5 -35t27.5 -20t45 -8.5q23 0 35 4zM764 199v542q-86 76 -211 76q-97 0 -167.5 -50.5t-104 -128.5t-33.5 -173q0 -143 83 -245.5t220 -102.5q62 0 109 19.5t104 62.5z" />
    <glyph glyph-name="Dcroat" unicode="&#x110;" horiz-adv-x="1419" 
d="M6 639v145h156v576q222 16 334 16q379 0 585 -162q119 -94 182.5 -232.5t63.5 -309.5q0 -167 -68 -310.5t-200 -238.5q-181 -133 -574 -133q-136 0 -323 18v631h-156zM1137 662q0 120 -33.5 216t-93 160.5t-144 107.5t-182.5 62t-213 19q-54 0 -129 -6v-437h401v-145
h-401v-487q114 -15 201 -15q282 0 438 135t156 390z" />
    <glyph glyph-name="dcroat" unicode="&#x111;" horiz-adv-x="1083" 
d="M1063 94l-21 -108q-50 -13 -88 -13q-148 0 -172 115q-121 -115 -288 -115q-97 0 -177.5 39.5t-132.5 107t-80 154t-28 181.5q0 134 56.5 247t163.5 181.5t243 68.5q119 0 225 -59v229h-447v117h447v209h170v-209h184v-117h-184v-876q0 -33 1 -51t6 -41.5t14.5 -35
t27.5 -20t45 -8.5q23 0 35 4zM764 199v542q-86 76 -211 76q-97 0 -167.5 -50.5t-104 -128.5t-33.5 -173q0 -143 83 -245.5t220 -102.5q62 0 109 19.5t104 62.5z" />
    <glyph glyph-name="Emacron" unicode="&#x112;" horiz-adv-x="1021" 
d="M989 154l-24 -154h-803v1366h739v-152h-561v-426h504v-145h-504v-489h649zM786 1569h-530v117h530v-117z" />
    <glyph glyph-name="emacron" unicode="&#x113;" horiz-adv-x="972" 
d="M848 219l63 -96q-55 -61 -152.5 -105.5t-221.5 -44.5q-142 0 -247.5 64.5t-158.5 173.5t-53 246q0 132 51.5 243.5t154.5 181.5t240 70q94 0 167.5 -33t114.5 -79.5t67.5 -105t35 -100.5t9.5 -75l-68 -84h-602q-2 -153 88 -257.5t237 -104.5t275 106zM760 590
q-8 105 -72 169t-168 64t-171 -63t-93 -170h504zM791 1167h-531v115h531v-115z" />
    <glyph glyph-name="Ebreve" unicode="&#x114;" horiz-adv-x="1021" 
d="M989 154l-24 -154h-803v1366h739v-152h-561v-426h504v-145h-504v-489h649zM709 1784l108 -12q-11 -126 -86 -193.5t-207 -67.5q-122 0 -198.5 67t-85.5 191l112 15q31 -156 174 -156q82 0 123 39t60 117z" />
    <glyph glyph-name="ebreve" unicode="&#x115;" horiz-adv-x="972" 
d="M848 219l63 -96q-55 -61 -152.5 -105.5t-221.5 -44.5q-142 0 -247.5 64.5t-158.5 173.5t-53 246q0 132 51.5 243.5t154.5 181.5t240 70q94 0 167.5 -33t114.5 -79.5t67.5 -105t35 -100.5t9.5 -75l-68 -84h-602q-2 -153 88 -257.5t237 -104.5t275 106zM760 590
q-8 105 -72 169t-168 64t-171 -63t-93 -170h504zM811 1354q-11 -127 -87 -202t-204 -75q-122 0 -200 74.5t-87 200.5l111 14q13 -79 56.5 -126.5t119.5 -47.5q81 0 123.5 45.5t58.5 128.5z" />
    <glyph glyph-name="Edotaccent" unicode="&#x116;" horiz-adv-x="1021" 
d="M989 154l-24 -154h-803v1366h739v-152h-561v-426h504v-145h-504v-489h649zM643 1655q0 -45 -29.5 -76t-74.5 -31q-49 0 -79 30.5t-30 76.5q0 47 30 77.5t77 30.5q46 0 76 -30.5t30 -77.5z" />
    <glyph glyph-name="edotaccent" unicode="&#x117;" horiz-adv-x="972" 
d="M848 219l63 -96q-55 -61 -152.5 -105.5t-221.5 -44.5q-142 0 -247.5 64.5t-158.5 173.5t-53 246q0 132 51.5 243.5t154.5 181.5t240 70q94 0 167.5 -33t114.5 -79.5t67.5 -105t35 -100.5t9.5 -75l-68 -84h-602q-2 -153 88 -257.5t237 -104.5t275 106zM760 590
q-8 105 -72 169t-168 64t-171 -63t-93 -170h504zM627 1239q0 -46 -29.5 -76t-75.5 -30q-49 0 -78.5 29t-29.5 77q0 47 29.5 77t76.5 30q46 0 76.5 -30.5t30.5 -76.5z" />
    <glyph glyph-name="Eogonek" unicode="&#x118;" horiz-adv-x="1021" 
d="M989 154l-24 -154q-7 -4 -18 -11.5t-39.5 -31t-50.5 -47t-40 -56t-18 -61.5q0 -37 24.5 -54.5t57.5 -17.5q25 0 48 4.5t33 9.5l11 5l20 -84q-61 -33 -159 -33q-75 0 -128 32t-53 101q0 41 21.5 81.5t52.5 68.5t61.5 50t51.5 33l22 11h-700v1366h739v-152h-561v-426h504
v-145h-504v-489h649z" />
    <glyph glyph-name="eogonek" unicode="&#x119;" horiz-adv-x="972" 
d="M848 219l63 -96q-77 -84 -209 -125q-13 -8 -33 -23.5t-51.5 -44.5t-53 -66t-21.5 -71q0 -36 25 -54t57 -18q25 0 48 4.5t33 9.5l11 5l20 -82q-61 -35 -157 -35q-75 0 -128 32.5t-53 100.5t48.5 124t109.5 93h-20q-142 0 -247.5 64.5t-158.5 173.5t-53 246
q0 132 51.5 243.5t154.5 181.5t240 70q94 0 167.5 -33t114.5 -79.5t67.5 -105t35 -100.5t9.5 -75l-68 -84h-602q-2 -153 88 -257.5t237 -104.5t275 106zM760 590q-8 105 -72 169t-168 64t-171 -63t-93 -170h504z" />
    <glyph glyph-name="Ecaron" unicode="&#x11a;" horiz-adv-x="1021" 
d="M842 1796l-248 -301h-117l-250 301l135 25l179 -217l180 215zM989 154l-24 -154h-803v1366h739v-152h-561v-426h504v-145h-504v-489h649z" />
    <glyph glyph-name="ecaron" unicode="&#x11b;" horiz-adv-x="972" 
d="M813 1366l-242 -299h-114l-248 299l133 23l176 -215l176 215zM848 219l63 -96q-55 -61 -152.5 -105.5t-221.5 -44.5q-142 0 -247.5 64.5t-158.5 173.5t-53 246q0 132 51.5 243.5t154.5 181.5t240 70q94 0 167.5 -33t114.5 -79.5t67.5 -105t35 -100.5t9.5 -75l-68 -84
h-602q-2 -153 88 -257.5t237 -104.5t275 106zM760 590q-8 105 -72 169t-168 64t-171 -63t-93 -170h504z" />
    <glyph glyph-name="Gcircumflex" unicode="&#x11c;" horiz-adv-x="1441" 
d="M866 1821l248 -301l-133 -25l-178 215l-178 -215l-125 25l252 301h114zM1313 117q-223 -146 -496 -146q-209 0 -374 89t-258 252.5t-93 373.5q0 153 55.5 285.5t151.5 224.5t229.5 144.5t286.5 52.5q285 0 492 -170l-107 -138q-175 146 -397 146q-228 0 -372 -153
t-144 -382q0 -249 157 -410t406 -161q148 0 287 74v352h-338l16 141h498v-575z" />
    <glyph glyph-name="gcircumflex" unicode="&#x11d;" horiz-adv-x="966" 
d="M541 1389l243 -299l-129 -23l-176 217l-176 -217l-123 23l248 299h113zM928 807l-205 12q94 -87 94 -223q0 -146 -104.5 -239t-251.5 -93q-70 0 -88 6q-78 -35 -78 -80q0 -17 12 -29.5t38 -21.5t42.5 -13.5t48.5 -10.5l101 -23q61 -13 105 -26t96.5 -37.5t85 -54.5
t55 -78.5t22.5 -108.5q0 -86 -41 -151.5t-109 -102t-144.5 -54.5t-157.5 -18q-77 0 -149.5 14.5t-140 46t-108.5 91t-41 139.5q0 100 63 174.5t160 114.5q-43 22 -64.5 46t-21.5 63q0 53 33 85.5t92 61.5q-100 43 -153 122.5t-53 186.5q0 155 109.5 250.5t266.5 95.5
q26 0 54 -3t44.5 -6.5t43 -9.5t32.5 -7l318 12zM657 600q0 100 -58.5 168t-158.5 68q-96 0 -152.5 -58t-56.5 -153q0 -105 60 -174.5t164 -69.5q94 0 148 61.5t54 157.5zM737 -242q0 45 -18.5 79.5t-54 57t-74.5 37t-92 25.5l-164 35q-164 -98 -164 -228q0 -52 27 -89.5
t71.5 -57t92 -28.5t98.5 -9q52 0 96.5 7.5t88 26t68.5 55.5t25 89z" />
    <glyph glyph-name="Gbreve" unicode="&#x11e;" horiz-adv-x="1441" 
d="M1313 117q-223 -146 -496 -146q-209 0 -374 89t-258 252.5t-93 373.5q0 153 55.5 285.5t151.5 224.5t229.5 144.5t286.5 52.5q285 0 492 -170l-107 -138q-175 146 -397 146q-228 0 -372 -153t-144 -382q0 -249 157 -410t406 -161q148 0 287 74v352h-338l16 141h498v-575z
M963 1784l108 -12q-11 -126 -86 -193.5t-207 -67.5q-122 0 -198.5 67t-85.5 191l112 15q31 -156 174 -156q82 0 123 39t60 117z" />
    <glyph glyph-name="gbreve" unicode="&#x11f;" horiz-adv-x="966" 
d="M928 807l-205 12q94 -87 94 -223q0 -146 -104.5 -239t-251.5 -93q-70 0 -88 6q-78 -35 -78 -80q0 -17 12 -29.5t38 -21.5t42.5 -13.5t48.5 -10.5l101 -23q61 -13 105 -26t96.5 -37.5t85 -54.5t55 -78.5t22.5 -108.5q0 -86 -41 -151.5t-109 -102t-144.5 -54.5t-157.5 -18
q-77 0 -149.5 14.5t-140 46t-108.5 91t-41 139.5q0 100 63 174.5t160 114.5q-43 22 -64.5 46t-21.5 63q0 53 33 85.5t92 61.5q-100 43 -153 122.5t-53 186.5q0 155 109.5 250.5t266.5 95.5q26 0 54 -3t44.5 -6.5t43 -9.5t32.5 -7l318 12zM657 600q0 100 -58.5 168t-158.5 68
q-96 0 -152.5 -58t-56.5 -153q0 -105 60 -174.5t164 -69.5q94 0 148 61.5t54 157.5zM737 -242q0 45 -18.5 79.5t-54 57t-74.5 37t-92 25.5l-164 35q-164 -98 -164 -228q0 -52 27 -89.5t71.5 -57t92 -28.5t98.5 -9q52 0 96.5 7.5t88 26t68.5 55.5t25 89zM772 1354
q-11 -127 -87 -202t-204 -75q-122 0 -199.5 74.5t-86.5 200.5l110 14q13 -79 56.5 -126.5t119.5 -47.5q81 0 124 45.5t59 128.5z" />
    <glyph glyph-name="Gdotaccent" unicode="&#x120;" horiz-adv-x="1441" 
d="M1313 117q-223 -146 -496 -146q-209 0 -374 89t-258 252.5t-93 373.5q0 153 55.5 285.5t151.5 224.5t229.5 144.5t286.5 52.5q285 0 492 -170l-107 -138q-175 146 -397 146q-228 0 -372 -153t-144 -382q0 -249 157 -410t406 -161q148 0 287 74v352h-338l16 141h498v-575z
M891 1655q0 -45 -30 -76t-75 -31q-49 0 -78.5 30t-29.5 77t29.5 77.5t76.5 30.5q46 0 76.5 -30.5t30.5 -77.5z" />
    <glyph glyph-name="gdotaccent" unicode="&#x121;" horiz-adv-x="966" 
d="M928 807l-205 12q94 -87 94 -223q0 -146 -104.5 -239t-251.5 -93q-70 0 -88 6q-78 -35 -78 -80q0 -17 12 -29.5t38 -21.5t42.5 -13.5t48.5 -10.5l101 -23q61 -13 105 -26t96.5 -37.5t85 -54.5t55 -78.5t22.5 -108.5q0 -86 -41 -151.5t-109 -102t-144.5 -54.5t-157.5 -18
q-77 0 -149.5 14.5t-140 46t-108.5 91t-41 139.5q0 100 63 174.5t160 114.5q-43 22 -64.5 46t-21.5 63q0 53 33 85.5t92 61.5q-100 43 -153 122.5t-53 186.5q0 155 109.5 250.5t266.5 95.5q26 0 54 -3t44.5 -6.5t43 -9.5t32.5 -7l318 12zM657 600q0 100 -58.5 168t-158.5 68
q-96 0 -152.5 -58t-56.5 -153q0 -105 60 -174.5t164 -69.5q94 0 148 61.5t54 157.5zM737 -242q0 45 -18.5 79.5t-54 57t-74.5 37t-92 25.5l-164 35q-164 -98 -164 -228q0 -52 27 -89.5t71.5 -57t92 -28.5t98.5 -9q52 0 96.5 7.5t88 26t68.5 55.5t25 89zM567 1239
q0 -46 -29 -76t-75 -30q-49 0 -79 29.5t-30 76.5t30 77t77 30q46 0 76 -30.5t30 -76.5z" />
    <glyph glyph-name="Gcommaaccent" unicode="&#x122;" horiz-adv-x="1441" 
d="M836 -137q-1 -99 -32 -201t-75 -182l-117 33q69 152 72 350h152zM1313 117q-223 -146 -496 -146q-209 0 -374 89t-258 252.5t-93 373.5q0 153 55.5 285.5t151.5 224.5t229.5 144.5t286.5 52.5q285 0 492 -170l-107 -138q-175 146 -397 146q-228 0 -372 -153t-144 -382
q0 -249 157 -410t406 -161q148 0 287 74v352h-338l16 141h498v-575z" />
    <glyph glyph-name="gcommaaccent" unicode="&#x123;" horiz-adv-x="966" 
d="M928 807l-205 12q94 -87 94 -223q0 -146 -104.5 -239t-251.5 -93q-70 0 -88 6q-78 -35 -78 -80q0 -17 12 -29.5t38 -21.5t42.5 -13.5t48.5 -10.5l101 -23q61 -13 105 -26t96.5 -37.5t85 -54.5t55 -78.5t22.5 -108.5q0 -86 -41 -151.5t-109 -102t-144.5 -54.5t-157.5 -18
q-77 0 -149.5 14.5t-140 46t-108.5 91t-41 139.5q0 100 63 174.5t160 114.5q-43 22 -64.5 46t-21.5 63q0 53 33 85.5t92 61.5q-100 43 -153 122.5t-53 186.5q0 155 109.5 250.5t266.5 95.5q26 0 54 -3t44.5 -6.5t43 -9.5t32.5 -7l318 12zM657 600q0 100 -58.5 168t-158.5 68
q-96 0 -152.5 -58t-56.5 -153q0 -105 60 -174.5t164 -69.5q94 0 148 61.5t54 157.5zM737 -242q0 45 -18.5 79.5t-54 57t-74.5 37t-92 25.5l-164 35q-164 -98 -164 -228q0 -52 27 -89.5t71.5 -57t92 -28.5t98.5 -9q52 0 96.5 7.5t88 26t68.5 55.5t25 89zM369 1090v26
q0 102 28 201.5t70 173.5l117 -37q-62 -143 -62 -340v-24h-153z" />
    <glyph glyph-name="Hcircumflex" unicode="&#x124;" horiz-adv-x="1417" 
d="M768 1800l248 -301l-133 -24l-178 215l-179 -215l-125 24l252 301h115zM1255 0h-180v639h-735v-639h-180v1366h180v-580h735v580h180v-1366z" />
    <glyph glyph-name="hcircumflex" unicode="&#x125;" horiz-adv-x="1064" 
d="M934 0h-170v557q0 252 -205 252q-76 0 -135 -34.5t-117 -100.5v-674h-170v1448h170v-639q130 143 309 143q169 0 254 -118q64 -82 64 -216v-618zM276 1829l244 -301l-129 -23l-174 219l-176 -219l-125 23l248 301h112z" />
    <glyph glyph-name="Hbar" unicode="&#x126;" horiz-adv-x="1417" 
d="M1255 0h-180v639h-735v-639h-180v1026h-168v123h168v217h180v-217h735v217h180v-217h170v-123h-170v-1026zM340 786h735v240h-735v-240z" />
    <glyph glyph-name="hbar" unicode="&#x127;" horiz-adv-x="1064" 
d="M934 0h-170v557q0 252 -205 252q-76 0 -135 -34.5t-117 -100.5v-674h-170v1122h-176v117h176v209h170v-209h455v-117h-455v-313q130 143 309 143q169 0 254 -118q64 -82 64 -216v-618z" />
    <glyph glyph-name="Itilde" unicode="&#x128;" horiz-adv-x="501" 
d="M340 0h-180v1366h180v-1366zM494 1745l90 -35q-26 -80 -77.5 -131t-127.5 -51q-45 0 -92.5 25.5t-91.5 51t-80 25.5q-67 0 -107 -104l-90 37q63 184 209 184q43 0 89.5 -25.5t91 -51t81.5 -25.5q70 0 105 100z" />
    <glyph glyph-name="itilde" unicode="&#x129;" horiz-adv-x="448" 
d="M309 0h-170v926h170v-926zM465 1337l88 -37q-59 -182 -199 -182q-36 0 -74 16.5t-65.5 36t-62 36t-62.5 16.5q-21 0 -38 -9t-29 -27t-19.5 -33t-15.5 -38l-88 37q30 88 75.5 136t124.5 48q44 0 91 -25.5t91.5 -51t82.5 -25.5q39 0 60.5 26t39.5 76z" />
    <glyph glyph-name="Imacron" unicode="&#x12a;" horiz-adv-x="501" 
d="M340 0h-180v1366h180v-1366zM516 1569h-530v117h530v-117z" />
    <glyph glyph-name="imacron" unicode="&#x12b;" horiz-adv-x="448" 
d="M309 0h-170v926h170v-926zM451 1167h-449v115h449v-115z" />
    <glyph glyph-name="Ibreve" unicode="&#x12c;" horiz-adv-x="501" 
d="M340 0h-180v1366h180v-1366zM434 1784l109 -12q-11 -126 -86 -193.5t-207 -67.5q-123 0 -199.5 67t-85.5 191l113 15q31 -156 174 -156q82 0 122.5 39t59.5 117z" />
    <glyph glyph-name="ibreve" unicode="&#x12d;" horiz-adv-x="448" 
d="M309 0h-170v926h170v-926zM516 1354q-11 -127 -87 -202t-204 -75q-122 0 -199.5 74.5t-86.5 200.5l110 14q13 -79 56.5 -126.5t119.5 -47.5q81 0 124 45.5t59 128.5z" />
    <glyph glyph-name="Iogonek" unicode="&#x12e;" horiz-adv-x="501" 
d="M238 0h-78v1366h180v-1366q-5 -4 -13.5 -11.5t-30 -31t-38 -47t-30 -56t-13.5 -61.5q0 -37 24.5 -54.5t57.5 -17.5q25 0 48 4.5t33 9.5l11 5l21 -84q-62 -33 -160 -33q-74 0 -127 32t-53 101q0 36 17.5 74t42 67t49 53t41.5 37z" />
    <glyph glyph-name="iogonek" unicode="&#x12f;" horiz-adv-x="442" 
d="M207 0h-72v926h172v-926q-5 -4 -12.5 -11.5t-26.5 -31t-34 -47t-27 -56t-12 -61.5q0 -36 24.5 -54t56.5 -18q25 0 48.5 4.5t33.5 9.5l11 5l20 -82q-62 -35 -158 -35q-75 0 -127.5 32.5t-52.5 100.5q0 36 16 74.5t39 67.5t46 53t39 37zM330 1235q0 -46 -29 -76.5
t-76 -30.5t-77.5 30t-30.5 77t30.5 76.5t77.5 29.5q46 0 75.5 -30t29.5 -76z" />
    <glyph glyph-name="Idotaccent" unicode="&#x130;" horiz-adv-x="501" 
d="M340 0h-180v1366h180v-1366zM360 1655q0 -45 -29.5 -76t-74.5 -31q-49 0 -79 30.5t-30 76.5q0 47 30 77.5t77 30.5q46 0 76 -30.5t30 -77.5z" />
    <glyph glyph-name="dotlessi" unicode="&#x131;" horiz-adv-x="448" 
d="M309 0h-170v926h170v-926z" />
    <glyph glyph-name="Jcircumflex" unicode="&#x134;" horiz-adv-x="765" 
d="M582 1821l247 -301l-133 -25l-178 215l-178 -215l-125 25l252 301h115zM614 1366v-1010q0 -197 -96 -293q-90 -90 -266 -90q-130 0 -244 58l31 149q96 -47 188 -47q47 0 82 10.5t57 33t36 47t20 63t8 69.5t2 78v932h182z" />
    <glyph glyph-name="jcircumflex" unicode="&#x135;" horiz-adv-x="446" 
d="M309 926v-994q0 -110 -15 -185.5t-54.5 -137t-114 -91.5t-186.5 -30q-19 0 -42.5 2t-36.5 4l-14 2l23 127q31 -6 68 -6q52 0 90 16.5t59 42t33.5 68t16 83.5t3.5 99v1000h170zM283 1389l223 -299l-129 -23l-156 217l-155 -217l-123 23l227 299h113z" />
    <glyph glyph-name="Kcommaaccent" unicode="&#x136;" horiz-adv-x="1206" 
d="M717 -137q-1 -99 -32 -201t-75 -182l-116 33q68 150 71 350h152zM1206 0h-223l-506 635l-135 -143v-492h-182v1366h182v-668l653 686l189 -36l-578 -603z" />
    <glyph glyph-name="kcommaaccent" unicode="&#x137;" horiz-adv-x="958" 
d="M598 -137q-1 -100 -31.5 -202.5t-74.5 -180.5l-109 33q71 164 74 350h141zM961 0h-205l-338 434l-111 -106v-328h-172v1448h172v-936l434 430l172 -35l-378 -375z" />
    <glyph glyph-name="kgreenlandic" unicode="&#x138;" horiz-adv-x="958" 
d="M967 0h-213l-336 436l-111 -108v-328h-172v934h172v-422l428 428l174 -35l-374 -373z" />
    <glyph glyph-name="Lacute" unicode="&#x139;" horiz-adv-x="962" 
d="M653 1774l-352 -269l-108 45l307 275zM946 156l-24 -156h-762v1366h180v-1210h606z" />
    <glyph glyph-name="lacute" unicode="&#x13a;" horiz-adv-x="442" 
d="M543 1821l-299 -271l-109 45l256 273zM307 0h-170v1448h170v-1448z" />
    <glyph glyph-name="Lcommaaccent" unicode="&#x13b;" horiz-adv-x="962" 
d="M623 -137q-1 -99 -32 -201t-75 -182l-117 33q69 152 72 350h152zM946 156l-24 -156h-762v1366h180v-1210h606z" />
    <glyph glyph-name="lcommaaccent" unicode="&#x13c;" horiz-adv-x="442" 
d="M295 -137q-1 -100 -31.5 -202.5t-75.5 -180.5l-108 33q71 164 74 350h141zM307 0h-170v1448h170v-1448z" />
    <glyph glyph-name="Lcaron" unicode="&#x13d;" horiz-adv-x="962" 
d="M799 1366q-3 -114 -32.5 -221t-70.5 -178l-108 34q63 146 69 365h142zM946 156l-24 -156h-762v1366h180v-1210h606z" />
    <glyph glyph-name="lcaron" unicode="&#x13e;" horiz-adv-x="643" 
d="M627 1448q-3 -114 -32.5 -221t-70.5 -178l-108 34q63 146 69 365h142zM307 0h-170v1448h170v-1448z" />
    <glyph glyph-name="Ldot" unicode="&#x13f;" horiz-adv-x="962" 
d="M836 745q0 -46 -30 -76t-77 -30t-76.5 30t-29.5 76q0 47 29.5 77t76.5 30q46 0 76.5 -30.5t30.5 -76.5zM946 156l-24 -156h-762v1366h180v-1210h606z" />
    <glyph glyph-name="ldot" unicode="&#x140;" horiz-adv-x="636" 
d="M438 729q0 48 30.5 77.5t76.5 29.5q45 0 75.5 -29.5t30.5 -77.5t-30 -77t-76 -29t-76.5 29t-30.5 77zM307 0h-170v1448h170v-1448z" />
    <glyph glyph-name="Lslash" unicode="&#x141;" horiz-adv-x="962" 
d="M946 156l-24 -156h-762v555l-156 -106v163l156 107v647h180v-551l287 199v-166l-287 -199v-493h606z" />
    <glyph glyph-name="lslash" unicode="&#x142;" horiz-adv-x="442" 
d="M307 0h-170v627l-139 -95v162l139 94v660h170v-576l146 99v-160l-146 -98v-713z" />
    <glyph glyph-name="Nacute" unicode="&#x143;" horiz-adv-x="1495" 
d="M1079 1712l-352 -268l-109 45l308 274zM1233 -18l-721 856q-38 44 -86.5 103t-77.5 95l-29 37q9 -181 9 -328v-745h-166v1356l106 28l699 -827l209 -258q-7 176 -7 317v750h164v-1354z" />
    <glyph glyph-name="nacute" unicode="&#x144;" horiz-adv-x="1077" 
d="M946 0h-172v559q0 250 -203 250q-78 0 -136 -34t-116 -101v-674h-172v651q0 84 -11 144t-48 106l148 53q63 -45 71 -157q72 77 148 116t172 39q179 0 264 -129q55 -86 55 -202v-621zM799 1329l-299 -270l-109 45l256 272z" />
    <glyph glyph-name="Ncommaaccent" unicode="&#x145;" horiz-adv-x="1495" 
d="M854 -137q-1 -99 -31.5 -201t-74.5 -182l-117 33q68 150 71 350h152zM1233 -18l-721 856q-38 44 -86.5 103t-77.5 95l-29 37q9 -181 9 -328v-745h-166v1356l106 28l699 -827l209 -258q-7 176 -7 317v750h164v-1354z" />
    <glyph glyph-name="ncommaaccent" unicode="&#x146;" horiz-adv-x="1077" 
d="M946 0h-172v559q0 250 -203 250q-78 0 -136 -34t-116 -101v-674h-172v651q0 84 -11 144t-48 106l148 53q63 -45 71 -157q72 77 148 116t172 39q179 0 264 -129q55 -86 55 -202v-621zM616 -137q-1 -100 -31.5 -202.5t-74.5 -180.5l-109 33q71 164 74 350h141z" />
    <glyph glyph-name="Ncaron" unicode="&#x147;" horiz-adv-x="1495" 
d="M1051 1704l-248 -301h-117l-250 301l135 25l179 -218l180 215zM1233 -18l-721 856q-38 44 -86.5 103t-77.5 95l-29 37q9 -181 9 -328v-745h-166v1356l106 28l699 -827l209 -258q-7 176 -7 317v750h164v-1354z" />
    <glyph glyph-name="ncaron" unicode="&#x148;" horiz-adv-x="1077" 
d="M946 0h-172v559q0 250 -203 250q-78 0 -136 -34t-116 -101v-674h-172v651q0 84 -11 144t-48 106l148 53q63 -45 71 -157q72 77 148 116t172 39q179 0 264 -129q55 -86 55 -202v-621zM838 1366l-242 -299h-115l-248 299l134 23l176 -215l176 215z" />
    <glyph glyph-name="napostrophe" unicode="&#x149;" horiz-adv-x="1077" 
d="M946 0h-172v559q0 250 -203 250q-78 0 -136 -34t-116 -101v-674h-172v651q0 84 -11 144t-48 106l148 53q63 -45 71 -157q72 77 148 116t172 39q179 0 264 -129q55 -86 55 -202v-621zM203 1393q-3 -114 -32.5 -221.5t-70.5 -178.5l-108 35q63 146 69 365h142z" />
    <glyph glyph-name="Eng" unicode="&#x14a;" horiz-adv-x="1495" 
d="M1333 1366v-1481q0 -397 -381 -397q-56 0 -112 13t-84 25l-27 13l31 156q10 -5 28.5 -13t70.5 -21t99 -13q55 0 94.5 16t62 41t35 66t16 79.5t3.5 92.5v112l-657 783q-38 44 -86.5 103t-77.5 95l-29 37q9 -154 9 -328v-745h-166v1356l106 28l699 -827q45 -55 97 -120
t81 -103l29 -37q-5 154 -5 324v745h164z" />
    <glyph glyph-name="eng" unicode="&#x14b;" horiz-adv-x="1077" 
d="M946 621v-715q0 -87 -9 -151.5t-33.5 -122t-66 -93.5t-107 -57t-155.5 -21q-20 0 -43.5 2.5t-37.5 4.5l-13 2l23 127q32 -7 67 -7q52 0 90 16.5t59.5 42.5t34 68.5t16 83.5t3.5 99v659q0 250 -203 250q-78 0 -136 -34t-116 -101v-674h-172v651q0 84 -11 144t-48 106
l148 53q63 -45 71 -157q72 77 148 116t172 39q179 0 264 -129q55 -86 55 -202z" />
    <glyph glyph-name="Omacron" unicode="&#x14c;" horiz-adv-x="1574" 
d="M1067 1569h-530v117h530v-117zM1483 684q0 -207 -86 -368t-246 -252t-369 -91q-201 0 -360 94t-245.5 256.5t-86.5 362.5q0 204 91.5 365.5t254 251.5t367.5 90q198 0 354.5 -95t241 -256.5t84.5 -357.5zM1290 664q0 112 -35 214.5t-99 181.5t-162.5 126t-217.5 47
q-150 0 -263 -68.5t-171.5 -186.5t-58.5 -267q0 -117 36.5 -221.5t102.5 -183.5t166 -125t221 -46q112 0 204 41.5t152 114t92.5 168t32.5 205.5z" />
    <glyph glyph-name="omacron" unicode="&#x14d;" horiz-adv-x="1103" 
d="M825 1167h-530v115h530v-115zM1028 463q0 -211 -130 -350.5t-343 -139.5t-345 136.5t-132 351.5q0 214 133 352.5t350 138.5q213 0 340 -139t127 -350zM854 457q0 71 -19 135.5t-56 116t-97.5 82t-136.5 30.5q-135 0 -214 -99t-79 -239q0 -101 35 -185.5t108 -139
t172 -54.5q136 0 211.5 100.5t75.5 252.5z" />
    <glyph glyph-name="Obreve" unicode="&#x14e;" horiz-adv-x="1574" 
d="M1483 684q0 -207 -86 -368t-246 -252t-369 -91q-201 0 -360 94t-245.5 256.5t-86.5 362.5q0 204 91.5 365.5t254 251.5t367.5 90q198 0 354.5 -95t241 -256.5t84.5 -357.5zM1290 664q0 112 -35 214.5t-99 181.5t-162.5 126t-217.5 47q-150 0 -263 -68.5t-171.5 -186.5
t-58.5 -267q0 -117 36.5 -221.5t102.5 -183.5t166 -125t221 -46q112 0 204 41.5t152 114t92.5 168t32.5 205.5zM985 1784l109 -12q-11 -126 -86 -193.5t-207 -67.5q-123 0 -199.5 67t-85.5 191l113 15q31 -156 174 -156q82 0 122.5 39t59.5 117z" />
    <glyph glyph-name="obreve" unicode="&#x14f;" horiz-adv-x="1103" 
d="M1028 463q0 -211 -130 -350.5t-343 -139.5t-345 136.5t-132 351.5q0 214 133 352.5t350 138.5q213 0 340 -139t127 -350zM854 457q0 71 -19 135.5t-56 116t-97.5 82t-136.5 30.5q-135 0 -214 -99t-79 -239q0 -101 35 -185.5t108 -139t172 -54.5q136 0 211.5 100.5
t75.5 252.5zM856 1354q-11 -127 -87 -202t-204 -75q-122 0 -199.5 74.5t-86.5 200.5l110 14q13 -79 56.5 -126.5t119.5 -47.5q81 0 124 45.5t59 128.5z" />
    <glyph glyph-name="Ohungarumlaut" unicode="&#x150;" horiz-adv-x="1574" 
d="M950 1776l-340 -269l-108 45l291 273zM1321 1776l-342 -269l-107 45l289 273zM1483 684q0 -207 -86 -368t-246 -252t-369 -91q-201 0 -360 94t-245.5 256.5t-86.5 362.5q0 204 91.5 365.5t254 251.5t367.5 90q198 0 354.5 -95t241 -256.5t84.5 -357.5zM1290 664
q0 112 -35 214.5t-99 181.5t-162.5 126t-217.5 47q-150 0 -263 -68.5t-171.5 -186.5t-58.5 -267q0 -117 36.5 -221.5t102.5 -183.5t166 -125t221 -46q112 0 204 41.5t152 114t92.5 168t32.5 205.5z" />
    <glyph glyph-name="ohungarumlaut" unicode="&#x151;" horiz-adv-x="1103" 
d="M670 1337l-285 -264l-104 39l229 272zM1006 1337l-287 -264l-103 39l228 272zM1028 463q0 -211 -130 -350.5t-343 -139.5t-345 136.5t-132 351.5q0 214 133 352.5t350 138.5q213 0 340 -139t127 -350zM854 457q0 71 -19 135.5t-56 116t-97.5 82t-136.5 30.5
q-135 0 -214 -99t-79 -239q0 -101 35 -185.5t108 -139t172 -54.5q136 0 211.5 100.5t75.5 252.5z" />
    <glyph glyph-name="OE" unicode="&#x152;" horiz-adv-x="2009" 
d="M1976 154l-24 -154h-799v74q-154 -97 -381 -97q-285 0 -467 170q-105 96 -160 234t-55 303q0 194 84.5 353.5t239 253t348.5 93.5q63 0 122 -9t103.5 -23.5t75 -27.5t58.5 -27.5t32 -16.5v86h735v-152h-561v-426h504v-145h-504v-489h649zM1153 250v840q-164 139 -391 139
q-147 0 -257 -69t-165 -185t-55 -262q0 -117 34.5 -220.5t98 -182.5t161.5 -125t218 -46q105 0 200.5 28.5t155.5 82.5z" />
    <glyph glyph-name="oe" unicode="&#x153;" horiz-adv-x="1628" 
d="M1507 219l66 -96q-59 -59 -155 -104.5t-214 -45.5q-201 0 -323 125q-131 -125 -326 -125q-211 0 -344 138t-133 350q0 208 134.5 349.5t342.5 141.5q196 0 328 -123q129 123 307 123q166 0 274.5 -108.5t108.5 -278.5l-64 -84h-598q-3 -152 86 -260t238 -108
q150 0 272 106zM1423 594q-8 105 -75 169t-172 64t-172.5 -63.5t-90.5 -169.5h510zM797 207q-60 126 -60 254q0 113 54 244q-93 116 -248 116q-135 0 -214 -99t-79 -237q0 -72 20 -138.5t58 -121t100 -87t139 -32.5q139 0 230 101z" />
    <glyph glyph-name="Racute" unicode="&#x154;" horiz-adv-x="1165" 
d="M868 1774l-352 -269l-108 45l307 275zM1165 0h-215l-372 571q-117 -6 -238 -6v-565h-180v1360q185 20 329 20q81 0 153 -11.5t141.5 -39.5t119 -72t79.5 -113.5t30 -158.5q0 -78 -26.5 -144t-69.5 -110t-83 -71.5t-83 -45.5zM829 971q0 71 -27 124t-75.5 83t-108.5 44.5
t-133 14.5q-77 0 -145 -10v-525h168q83 0 147 23t101 62t55 85.5t18 98.5z" />
    <glyph glyph-name="racute" unicode="&#x155;" horiz-adv-x="733" 
d="M721 913l-39 -149q-71 31 -123 31q-39 0 -74 -15.5t-67 -47t-51.5 -55t-47.5 -63.5v-614h-172v651q0 84 -11 144t-48 106l148 53q73 -54 73 -204q26 42 50 72.5t57 62.5t73 49.5t84 17.5q68 0 148 -39zM592 1329l-299 -270l-109 45l256 272z" />
    <glyph glyph-name="Rcommaaccent" unicode="&#x156;" horiz-adv-x="1165" 
d="M705 -137q-1 -99 -32 -201t-75 -182l-117 33q69 152 72 350h152zM1165 0h-215l-372 571q-117 -6 -238 -6v-565h-180v1360q185 20 329 20q81 0 153 -11.5t141.5 -39.5t119 -72t79.5 -113.5t30 -158.5q0 -78 -26.5 -144t-69.5 -110t-83 -71.5t-83 -45.5zM829 971
q0 71 -27 124t-75.5 83t-108.5 44.5t-133 14.5q-77 0 -145 -10v-525h168q83 0 147 23t101 62t55 85.5t18 98.5z" />
    <glyph glyph-name="rcommaaccent" unicode="&#x157;" horiz-adv-x="733" 
d="M721 913l-39 -149q-71 31 -123 31q-39 0 -74 -15.5t-67 -47t-51.5 -55t-47.5 -63.5v-614h-172v651q0 84 -11 144t-48 106l148 53q73 -54 73 -204q26 42 50 72.5t57 62.5t73 49.5t84 17.5q68 0 148 -39zM307 -137q-1 -100 -31.5 -202.5t-74.5 -180.5l-109 33
q71 164 74 350h141z" />
    <glyph glyph-name="Rcaron" unicode="&#x158;" horiz-adv-x="1165" 
d="M819 1796l-248 -301h-116l-250 301l135 25l178 -217l180 215zM1165 0h-215l-372 571q-117 -6 -238 -6v-565h-180v1360q185 20 329 20q81 0 153 -11.5t141.5 -39.5t119 -72t79.5 -113.5t30 -158.5q0 -78 -26.5 -144t-69.5 -110t-83 -71.5t-83 -45.5zM829 971q0 71 -27 124
t-75.5 83t-108.5 44.5t-133 14.5q-77 0 -145 -10v-525h168q83 0 147 23t101 62t55 85.5t18 98.5z" />
    <glyph glyph-name="rcaron" unicode="&#x159;" horiz-adv-x="733" 
d="M721 913l-39 -149q-71 31 -123 31q-39 0 -74 -15.5t-67 -47t-51.5 -55t-47.5 -63.5v-614h-172v651q0 84 -11 144t-48 106l148 53q73 -54 73 -204q26 42 50 72.5t57 62.5t73 49.5t84 17.5q68 0 148 -39zM629 1366l-242 -299h-115l-247 299l133 23l176 -215l176 215z" />
    <glyph glyph-name="Sacute" unicode="&#x15a;" horiz-adv-x="970" 
d="M844 1774l-352 -269l-109 45l307 275zM901 375q0 -123 -62 -216.5t-163 -140.5t-223 -47q-87 0 -175 26.5t-134.5 52t-104.5 63.5l37 180q176 -170 368 -170q114 0 186 64.5t72 179.5q0 50 -20.5 91t-55 69.5t-79.5 53t-94.5 47t-99 46.5t-94.5 55.5t-79.5 70t-55 94.5
t-20.5 124q0 168 119.5 271.5t290.5 103.5q186 0 348 -117l-63 -148q-2 2 -21.5 16t-27 19t-28.5 18t-34.5 19.5t-36.5 16t-42 14.5t-44.5 8.5t-50.5 3.5q-95 0 -157 -58t-62 -155q0 -61 33.5 -107.5t87 -77.5t118 -59.5t129 -62.5t118 -77t87 -112t33.5 -159z" />
    <glyph glyph-name="sacute" unicode="&#x15b;" horiz-adv-x="751" 
d="M682 1329l-299 -270l-109 45l256 272zM690 256q0 -90 -50 -156t-125 -96.5t-163 -30.5q-191 0 -321 121l69 119q114 -109 248 -109q75 0 119.5 36t44.5 104q0 41 -23 71.5t-60 51t-81.5 39.5t-89 42t-81.5 52t-60 76t-23 108q0 123 88.5 195.5t218.5 72.5q136 0 265 -82
l-52 -127q-57 39 -104 58.5t-102 19.5q-68 0 -106 -33.5t-38 -89.5q0 -39 23.5 -68.5t61 -49.5t83 -39t91 -42.5t83 -53t61 -78t23.5 -111.5z" />
    <glyph glyph-name="Scircumflex" unicode="&#x15c;" horiz-adv-x="970" 
d="M580 1821l247 -301l-133 -25l-178 215l-178 -215l-125 25l252 301h115zM901 375q0 -123 -62 -216.5t-163 -140.5t-223 -47q-87 0 -175 26.5t-134.5 52t-104.5 63.5l37 180q176 -170 368 -170q114 0 186 64.5t72 179.5q0 50 -20.5 91t-55 69.5t-79.5 53t-94.5 47t-99 46.5
t-94.5 55.5t-79.5 70t-55 94.5t-20.5 124q0 168 119.5 271.5t290.5 103.5q186 0 348 -117l-63 -148q-2 2 -21.5 16t-27 19t-28.5 18t-34.5 19.5t-36.5 16t-42 14.5t-44.5 8.5t-50.5 3.5q-95 0 -157 -58t-62 -155q0 -61 33.5 -107.5t87 -77.5t118 -59.5t129 -62.5t118 -77
t87 -112t33.5 -159z" />
    <glyph glyph-name="scircumflex" unicode="&#x15d;" horiz-adv-x="751" 
d="M459 1389l223 -299l-129 -23l-156 217l-155 -217l-123 23l227 299h113zM690 256q0 -90 -50 -156t-125 -96.5t-163 -30.5q-191 0 -321 121l69 119q114 -109 248 -109q75 0 119.5 36t44.5 104q0 41 -23 71.5t-60 51t-81.5 39.5t-89 42t-81.5 52t-60 76t-23 108
q0 123 88.5 195.5t218.5 72.5q136 0 265 -82l-52 -127q-57 39 -104 58.5t-102 19.5q-68 0 -106 -33.5t-38 -89.5q0 -39 23.5 -68.5t61 -49.5t83 -39t91 -42.5t83 -53t61 -78t23.5 -111.5z" />
    <glyph glyph-name="Scedilla" unicode="&#x15e;" horiz-adv-x="970" 
d="M627 -250q0 -80 -62.5 -125t-152.5 -45q-39 0 -73.5 4t-49.5 8l-15 5l19 90q49 -19 100 -19q49 0 75 23t26 57q0 31 -29 48.5t-72 17.5l-51 -4l57 163q-76 6 -151 32.5t-116.5 50t-92.5 57.5l37 180q176 -170 368 -170q114 0 186 64.5t72 179.5q0 50 -20.5 91t-55 69.5
t-79.5 53t-94.5 47t-99 46.5t-94.5 55.5t-79.5 70t-55 94.5t-20.5 124q0 168 119.5 271.5t290.5 103.5q186 0 348 -117l-63 -148q-2 2 -21.5 16t-27 19t-28.5 18t-34.5 19.5t-36.5 16t-42 14.5t-44.5 8.5t-50.5 3.5q-95 0 -157 -58t-62 -155q0 -61 33.5 -107.5t87 -77.5
t118 -59.5t129 -62.5t118 -77t87 -112t33.5 -159q0 -174 -117 -282.5t-292 -119.5l-33 -100q10 2 26 2q66 0 104 -34t38 -91z" />
    <glyph glyph-name="scedilla" unicode="&#x15f;" horiz-adv-x="751" 
d="M535 -250q0 -80 -63 -125t-153 -45q-39 0 -73.5 4t-49.5 8l-14 5l19 90q49 -19 100 -19q49 0 74.5 23t25.5 57q0 31 -28.5 48.5t-71.5 17.5l-51 -4l57 165q-164 13 -276 119l69 119q114 -109 248 -109q75 0 119.5 36t44.5 104q0 41 -23 71.5t-60 51t-81.5 39.5t-89 42
t-81.5 52t-60 76t-23 108q0 123 88.5 195.5t218.5 72.5q136 0 265 -82l-52 -127q-57 39 -104 58.5t-102 19.5q-68 0 -106 -33.5t-38 -89.5q0 -39 23.5 -68.5t61 -49.5t83 -39t91 -42.5t83 -53t61 -78t23.5 -111.5q0 -121 -83 -193.5t-206 -85.5l-34 -104q10 2 26 2
q66 0 104 -34t38 -91z" />
    <glyph glyph-name="Scaron" unicode="&#x160;" horiz-adv-x="970" 
d="M821 1796l-248 -301h-116l-250 301l135 25l178 -217l180 215zM901 375q0 -123 -62 -216.5t-163 -140.5t-223 -47q-87 0 -175 26.5t-134.5 52t-104.5 63.5l37 180q176 -170 368 -170q114 0 186 64.5t72 179.5q0 50 -20.5 91t-55 69.5t-79.5 53t-94.5 47t-99 46.5
t-94.5 55.5t-79.5 70t-55 94.5t-20.5 124q0 168 119.5 271.5t290.5 103.5q186 0 348 -117l-63 -148q-2 2 -21.5 16t-27 19t-28.5 18t-34.5 19.5t-36.5 16t-42 14.5t-44.5 8.5t-50.5 3.5q-95 0 -157 -58t-62 -155q0 -61 33.5 -107.5t87 -77.5t118 -59.5t129 -62.5t118 -77
t87 -112t33.5 -159z" />
    <glyph glyph-name="scaron" unicode="&#x161;" horiz-adv-x="751" 
d="M676 1366l-221 -299h-115l-227 299l133 23l155 -215l156 215zM690 256q0 -90 -50 -156t-125 -96.5t-163 -30.5q-191 0 -321 121l69 119q114 -109 248 -109q75 0 119.5 36t44.5 104q0 41 -23 71.5t-60 51t-81.5 39.5t-89 42t-81.5 52t-60 76t-23 108q0 123 88.5 195.5
t218.5 72.5q136 0 265 -82l-52 -127q-57 39 -104 58.5t-102 19.5q-68 0 -106 -33.5t-38 -89.5q0 -39 23.5 -68.5t61 -49.5t83 -39t91 -42.5t83 -53t61 -78t23.5 -111.5z" />
    <glyph glyph-name="Tcedilla" unicode="&#x162;" horiz-adv-x="1148" 
d="M748 -250q0 -80 -63 -125t-153 -45q-39 0 -73.5 4t-48.5 8l-15 5l19 90q49 -19 100 -19q49 0 74.5 23t25.5 57q0 31 -28.5 48.5t-71.5 17.5l-51 -4l67 190h-45v1214h-467v152h1112v-152h-464v-1214h-43l-43 -127q10 2 26 2q66 0 104 -34t38 -91z" />
    <glyph glyph-name="tcedilla" unicode="&#x163;" horiz-adv-x="708" 
d="M518 -213q0 -80 -62.5 -125t-152.5 -45q-39 0 -73.5 4t-49.5 8l-14 4l18 91q50 -19 101 -19q49 0 74.5 23t25.5 57q0 31 -28.5 48t-71.5 17l-52 -4l62 174q-90 63 -90 230v549h-193v106l54 4q113 9 152 46.5t58 146.5l9 94h88v-270h260v-127h-260v-486q0 -52 3.5 -81.5
t17 -59t43 -42.5t77.5 -13q39 0 90 13t76 24l25 -117q-114 -57 -246 -57q-32 0 -82 8l-27 -78q11 2 27 2q66 0 103.5 -34t37.5 -91z" />
    <glyph glyph-name="Tcaron" unicode="&#x164;" horiz-adv-x="1148" 
d="M881 1796l-248 -301h-117l-250 301l135 25l179 -217l180 215zM1130 1214h-464v-1214h-181v1214h-467v152h1112v-152z" />
    <glyph glyph-name="tcaron" unicode="&#x165;" horiz-adv-x="708" 
d="M678 1460q-3 -114 -32.5 -221t-70.5 -178l-108 35q64 148 70 364h141zM705 37q-114 -57 -246 -57q-130 0 -192 67.5t-62 202.5v549h-193v106l54 4q113 9 152 46.5t58 146.5l9 94h88v-270h260v-127h-260v-486q0 -52 3.5 -81.5t17 -59t43 -42.5t77.5 -13q39 0 90 13t76 24z
" />
    <glyph glyph-name="Tbar" unicode="&#x166;" horiz-adv-x="1148" 
d="M1130 1214h-464v-452h325v-139h-325v-623h-181v623h-327v139h327v452h-467v152h1112v-152z" />
    <glyph glyph-name="tbar" unicode="&#x167;" horiz-adv-x="708" 
d="M705 37q-114 -57 -246 -57q-130 0 -192 67.5t-62 202.5v213h-193v119h193v217h-193v106l54 4q113 9 152 46.5t58 146.5l9 94h88v-270h260v-127h-260v-217h260v-119h-260v-150q0 -52 3.5 -81.5t17 -59t43 -42.5t77.5 -13q39 0 90 13t76 24z" />
    <glyph glyph-name="Utilde" unicode="&#x168;" horiz-adv-x="1423" 
d="M1272 1366v-817q0 -149 -29.5 -256t-118.5 -187q-150 -135 -411 -135q-339 0 -477 199q-84 116 -84 381v815h182v-815q0 -119 19 -197.5t77 -132.5q102 -96 287 -96q194 0 289 104q84 91 84 322v815h182zM952 1745l90 -35q-26 -80 -77 -131t-127 -51q-45 0 -92.5 25.5
t-92 51t-80.5 25.5q-66 0 -106 -104l-90 37q63 184 209 184q52 0 135 -51t127 -51q69 0 104 100z" />
    <glyph glyph-name="utilde" unicode="&#x169;" horiz-adv-x="1067" 
d="M1042 94l-22 -108q-43 -13 -88 -13q-155 0 -174 136q-68 -65 -137.5 -100.5t-159.5 -35.5q-330 0 -330 340v613h170v-578q0 -231 201 -231q74 0 125 27t114 87v695h172v-684q0 -32 1 -50t6 -40.5t14.5 -34t27.5 -19.5t44 -8zM772 1337l88 -37q-59 -182 -198 -182
q-36 0 -74 16.5t-66 36t-62.5 36t-62.5 16.5q-21 0 -38 -9t-29 -27t-19.5 -33t-15.5 -38l-88 37q30 88 75.5 136t125.5 48q44 0 90.5 -25.5t91 -51t82.5 -25.5q39 0 60.5 26t39.5 76z" />
    <glyph glyph-name="Umacron" unicode="&#x16a;" horiz-adv-x="1423" 
d="M1272 1366v-817q0 -149 -29.5 -256t-118.5 -187q-150 -135 -411 -135q-339 0 -477 199q-84 116 -84 381v815h182v-815q0 -119 19 -197.5t77 -132.5q102 -96 287 -96q194 0 289 104q84 91 84 322v815h182zM975 1569h-531v117h531v-117z" />
    <glyph glyph-name="umacron" unicode="&#x16b;" horiz-adv-x="1067" 
d="M1042 94l-22 -108q-43 -13 -88 -13q-155 0 -174 136q-68 -65 -137.5 -100.5t-159.5 -35.5q-330 0 -330 340v613h170v-578q0 -231 201 -231q74 0 125 27t114 87v695h172v-684q0 -32 1 -50t6 -40.5t14.5 -34t27.5 -19.5t44 -8zM799 1167h-531v115h531v-115z" />
    <glyph glyph-name="Ubreve" unicode="&#x16c;" horiz-adv-x="1423" 
d="M1272 1366v-817q0 -149 -29.5 -256t-118.5 -187q-150 -135 -411 -135q-339 0 -477 199q-84 116 -84 381v815h182v-815q0 -119 19 -197.5t77 -132.5q102 -96 287 -96q194 0 289 104q84 91 84 322v815h182zM891 1763l108 -12q-11 -125 -85.5 -192.5t-206.5 -67.5
q-123 0 -199.5 67t-85.5 191l113 14q30 -155 174 -155q82 0 122.5 38.5t59.5 116.5z" />
    <glyph glyph-name="ubreve" unicode="&#x16d;" horiz-adv-x="1067" 
d="M1042 94l-22 -108q-43 -13 -88 -13q-155 0 -174 136q-68 -65 -137.5 -100.5t-159.5 -35.5q-330 0 -330 340v613h170v-578q0 -231 201 -231q74 0 125 27t114 87v695h172v-684q0 -32 1 -50t6 -40.5t14.5 -34t27.5 -19.5t44 -8zM821 1354q-11 -127 -87 -202t-204 -75
q-122 0 -199.5 74.5t-86.5 200.5l110 14q13 -79 56.5 -126.5t119.5 -47.5q81 0 124 45.5t59 128.5z" />
    <glyph glyph-name="Uring" unicode="&#x16e;" horiz-adv-x="1423" 
d="M510 1599q0 82 59 134.5t140 52.5q84 0 143 -52t59 -135q0 -84 -59 -137t-141 -53t-141.5 53t-59.5 137zM600 1599q0 -48 32 -79t77 -31q48 0 78 29t30 81q0 47 -30.5 78t-75.5 31q-47 0 -79 -29.5t-32 -79.5zM1272 1366v-817q0 -149 -29.5 -256t-118.5 -187
q-150 -135 -411 -135q-339 0 -477 199q-84 116 -84 381v815h182v-815q0 -119 19 -197.5t77 -132.5q102 -96 287 -96q194 0 289 104q84 91 84 322v815h182z" />
    <glyph glyph-name="uring" unicode="&#x16f;" horiz-adv-x="1067" 
d="M334 1219q0 82 58.5 134t139.5 52q84 0 143.5 -51.5t59.5 -134.5t-59 -136t-141 -53t-141.5 53.5t-59.5 135.5zM424 1219q0 -49 31 -80t77 -31q48 0 79.5 29.5t31.5 81.5q0 48 -31.5 79t-76.5 31q-49 0 -80 -29t-31 -81zM1042 94l-22 -108q-43 -13 -88 -13
q-155 0 -174 136q-68 -65 -137.5 -100.5t-159.5 -35.5q-330 0 -330 340v613h170v-578q0 -231 201 -231q74 0 125 27t114 87v695h172v-684q0 -32 1 -50t6 -40.5t14.5 -34t27.5 -19.5t44 -8z" />
    <glyph glyph-name="Uhungarumlaut" unicode="&#x170;" horiz-adv-x="1423" 
d="M1272 1366v-817q0 -149 -29.5 -256t-118.5 -187q-150 -135 -411 -135q-339 0 -477 199q-84 116 -84 381v815h182v-815q0 -119 19 -197.5t77 -132.5q102 -96 287 -96q194 0 289 104q84 91 84 322v815h182zM856 1755l-340 -268l-108 45l290 272zM1227 1755l-342 -268
l-107 45l289 272z" />
    <glyph glyph-name="uhungarumlaut" unicode="&#x171;" horiz-adv-x="1067" 
d="M1042 94l-22 -108q-43 -13 -88 -13q-155 0 -174 136q-68 -65 -137.5 -100.5t-159.5 -35.5q-330 0 -330 340v613h170v-578q0 -231 201 -231q74 0 125 27t114 87v695h172v-684q0 -32 1 -50t6 -40.5t14.5 -34t27.5 -19.5t44 -8zM643 1337l-285 -264l-104 39l229 272z
M979 1337l-287 -264l-102 39l227 272z" />
    <glyph glyph-name="Uogonek" unicode="&#x172;" horiz-adv-x="1423" 
d="M1272 1366v-817q0 -149 -29.5 -256t-118.5 -187q-83 -77 -211 -110q-15 -9 -37 -26.5t-51 -45t-49 -63t-20 -68.5q0 -37 24.5 -54.5t57.5 -17.5q25 0 48 4.5t34 9.5l10 5l20 -84q-61 -33 -159 -33q-75 0 -128 32t-53 101q0 68 49 123.5t111 93.5q-10 0 -29 -1t-28 -1
q-339 0 -477 199q-84 116 -84 381v815h182v-815q0 -119 19 -197.5t77 -132.5q102 -96 287 -96q194 0 289 104q84 91 84 322v815h182z" />
    <glyph glyph-name="uogonek" unicode="&#x173;" horiz-adv-x="1067" 
d="M1042 94l-22 -108q-7 -4 -18 -11.5t-39 -31t-50 -47t-39.5 -56t-17.5 -61.5q0 -36 25 -54t57 -18q25 0 48 4.5t34 9.5l10 5l21 -82q-62 -35 -158 -35q-75 0 -127.5 32.5t-52.5 100.5q0 42 20.5 82t54 70t59 48t52.5 33q-124 13 -141 134q-68 -65 -137.5 -100.5
t-159.5 -35.5q-330 0 -330 340v613h170v-578q0 -231 201 -231q74 0 125 27t114 87v695h172v-684q0 -32 1 -50t6 -40.5t14.5 -34t27.5 -19.5t44 -8z" />
    <glyph glyph-name="Wcircumflex" unicode="&#x174;" horiz-adv-x="1949" 
d="M1933 1350l-538 -1350h-142l-186 471q-56 133 -90 236l-90 -234l-189 -473h-141l-541 1350l179 36l344 -864l112 -307q52 153 113 305l139 350l-190 480l174 36l340 -862q20 -53 44.5 -120.5t40 -111t17.5 -48.5q1 5 16.5 48t40.5 111.5t46 122.5l335 860zM965 1821
l247 -301l-133 -25l-178 215l-178 -215l-125 25l252 301h115z" />
    <glyph glyph-name="wcircumflex" unicode="&#x175;" horiz-adv-x="1429" 
d="M1413 909l-366 -909h-146l-192 496l-185 -496h-145l-363 909l164 33l219 -559q54 -137 72 -207q45 135 72 205l102 270l-102 258l155 33l213 -559q16 -44 32 -92.5t24 -74.5l8 -26q24 84 67 195l218 557zM772 1389l244 -299l-129 -23l-176 217l-176 -217l-123 23l247 299
h113z" />
    <glyph glyph-name="Ycircumflex" unicode="&#x176;" horiz-adv-x="1165" 
d="M1163 1352l-487 -734v-618h-182v618l-490 734l182 34l279 -419q38 -57 129 -209q7 21 129 211l276 417zM641 1821l248 -301l-133 -25l-178 215l-179 -215l-125 25l252 301h115z" />
    <glyph glyph-name="ycircumflex" unicode="&#x177;" horiz-adv-x="913" 
d="M895 909l-428 -1048q-24 -58 -47.5 -103t-58 -92t-72.5 -77.5t-90.5 -50t-112.5 -19.5q-47 0 -129 16l27 127q44 -12 94 -12q40 0 75.5 18.5t60 43t49 66.5t37 70t30.5 72l41 98l-353 891l168 33l181 -475q22 -56 44.5 -122t34.5 -104l11 -38q47 149 92 262l186 477z
M516 1389l244 -299l-129 -23l-176 217l-176 -217l-123 23l247 299h113z" />
    <glyph glyph-name="Ydieresis" unicode="&#x178;" horiz-adv-x="1165" 
d="M1163 1352l-487 -734v-618h-182v618l-490 734l182 34l279 -419q29 -43 61.5 -95t49.5 -83l18 -31q68 117 129 211l276 417zM494 1647q0 -44 -28.5 -72.5t-74.5 -28.5q-44 0 -73 29t-29 72q0 44 29 73t73 29q46 0 74.5 -28t28.5 -74zM872 1647q0 -43 -28 -72t-72 -29
t-73 29t-29 72q0 44 29 73t73 29t72 -28t28 -74z" />
    <glyph glyph-name="Zacute" unicode="&#x179;" horiz-adv-x="1189" 
d="M897 1774l-352 -269l-109 45l307 275zM1159 156l-24 -156h-1072l-32 72l827 1142h-752v152h984l30 -74l-825 -1136h864z" />
    <glyph glyph-name="zacute" unicode="&#x17a;" horiz-adv-x="862" 
d="M717 1329l-299 -270l-109 45l256 272zM831 129l-26 -129h-752l-20 70l532 729h-483v127h690l23 -68l-531 -729h567z" />
    <glyph glyph-name="Zdotaccent" unicode="&#x17b;" horiz-adv-x="1189" 
d="M1159 156l-24 -156h-1072l-32 72l827 1142h-752v152h984l30 -74l-825 -1136h864zM705 1655q0 -45 -30 -76t-75 -31q-49 0 -78.5 30t-29.5 77t29.5 77.5t76.5 30.5q46 0 76.5 -30.5t30.5 -77.5z" />
    <glyph glyph-name="zdotaccent" unicode="&#x17c;" horiz-adv-x="862" 
d="M831 129l-26 -129h-752l-20 70l532 729h-483v127h690l23 -68l-531 -729h567zM541 1239q0 -46 -29.5 -76t-75.5 -30q-49 0 -78.5 29t-29.5 77q0 47 29.5 77t76.5 30q46 0 76.5 -30.5t30.5 -76.5z" />
    <glyph glyph-name="Zcaron" unicode="&#x17d;" horiz-adv-x="1189" 
d="M913 1796l-247 -301h-117l-250 301l135 25l178 -217l181 215zM1159 156l-24 -156h-1072l-32 72l827 1142h-752v152h984l30 -74l-825 -1136h864z" />
    <glyph glyph-name="zcaron" unicode="&#x17e;" horiz-adv-x="862" 
d="M743 1366l-241 -299h-115l-248 299l133 23l177 -215l176 215zM831 129l-26 -129h-752l-20 70l532 729h-483v127h690l23 -68l-531 -729h567z" />
    <glyph glyph-name="Acaron" unicode="&#x1cd;" horiz-adv-x="1294" 
d="M1096 0l-176 430h-562l-176 -430h-178l578 1366h131l575 -1366h-192zM416 575h446l-112 287q-92 226 -109 287q-1 -3 -18.5 -48.5t-44.5 -116t-48 -122.5zM952 1776l-247 -301h-117l-250 301l135 24l178 -217l180 215z" />
    <glyph glyph-name="acaron" unicode="&#x1ce;" horiz-adv-x="909" 
d="M870 -16q-44 -11 -86 -11q-65 0 -112 27t-58 84q-73 -56 -136 -83.5t-142 -27.5q-122 0 -196 76t-74 197q0 51 13 93.5t39 74t56 56t74 42t81.5 29t90.5 20t88.5 12.5t87.5 9v39q0 101 -39.5 148.5t-148.5 47.5q-71 0 -137 -25.5t-154 -74.5v143q177 92 327 92
q191 0 269 -114q51 -64 51 -228v-370q0 -31 1 -48t5.5 -39.5t14 -34t27.5 -20t44 -8.5l37 4zM596 182v297q-45 -4 -77 -9t-80 -15t-80.5 -26t-64.5 -39t-48.5 -58.5t-16.5 -79.5q0 -69 46 -110.5t116 -41.5q89 0 205 82zM756 1366l-242 -299h-115l-247 299l133 23l176 -215
l176 215z" />
    <glyph glyph-name="Scommaaccent" unicode="&#x218;" horiz-adv-x="970" 
d="M532 -137q-1 -99 -31.5 -201t-74.5 -182l-117 33q69 152 72 350h151zM901 375q0 -123 -62 -216.5t-163 -140.5t-223 -47q-87 0 -175 26.5t-134.5 52t-104.5 63.5l37 180q176 -170 368 -170q114 0 186 64.5t72 179.5q0 50 -20.5 91t-55 69.5t-79.5 53t-94.5 47t-99 46.5
t-94.5 55.5t-79.5 70t-55 94.5t-20.5 124q0 168 119.5 271.5t290.5 103.5q186 0 348 -117l-63 -148q-2 2 -21.5 16t-27 19t-28.5 18t-34.5 19.5t-36.5 16t-42 14.5t-44.5 8.5t-50.5 3.5q-95 0 -157 -58t-62 -155q0 -61 33.5 -107.5t87 -77.5t118 -59.5t129 -62.5t118 -77
t87 -112t33.5 -159z" />
    <glyph glyph-name="scommaaccent" unicode="&#x219;" horiz-adv-x="751" 
d="M432 -137q-1 -100 -31.5 -202.5t-74.5 -180.5l-109 33q71 164 74 350h141zM690 256q0 -90 -50 -156t-125 -96.5t-163 -30.5q-191 0 -321 121l69 119q114 -109 248 -109q75 0 119.5 36t44.5 104q0 41 -23 71.5t-60 51t-81.5 39.5t-89 42t-81.5 52t-60 76t-23 108
q0 123 88.5 195.5t218.5 72.5q136 0 265 -82l-52 -127q-57 39 -104 58.5t-102 19.5q-68 0 -106 -33.5t-38 -89.5q0 -39 23.5 -68.5t61 -49.5t83 -39t91 -42.5t83 -53t61 -78t23.5 -111.5z" />
    <glyph glyph-name="Tcommaaccent" unicode="&#x21a;" horiz-adv-x="1148" 
d="M649 -137q-1 -99 -31.5 -201t-74.5 -182l-117 33q69 152 72 350h151zM1130 1214h-464v-1214h-181v1214h-467v152h1112v-152z" />
    <glyph glyph-name="tcommaaccent" unicode="&#x21b;" horiz-adv-x="708" 
d="M492 -137q-1 -100 -31.5 -202.5t-75.5 -180.5l-109 33q71 164 74 350h142zM705 37q-114 -57 -246 -57q-130 0 -192 67.5t-62 202.5v549h-193v106l54 4q113 9 152 46.5t58 146.5l9 94h88v-270h260v-127h-260v-486q0 -52 3.5 -81.5t17 -59t43 -42.5t77.5 -13q39 0 90 13
t76 24z" />
    <glyph glyph-name="Adotaccent" unicode="&#x226;" horiz-adv-x="1294" 
d="M1096 0l-176 430h-562l-176 -430h-178l578 1366h131l575 -1366h-192zM416 575h446l-112 287q-92 226 -109 287q-1 -3 -18.5 -48.5t-44.5 -116t-48 -122.5zM754 1634q0 -45 -30 -75.5t-75 -30.5q-49 0 -78.5 30t-29.5 76q0 48 29.5 78.5t76.5 30.5q46 0 76.5 -31t30.5 -78
z" />
    <glyph glyph-name="adotaccent" unicode="&#x227;" horiz-adv-x="909" 
d="M870 -16q-44 -11 -86 -11q-65 0 -112 27t-58 84q-73 -56 -136 -83.5t-142 -27.5q-122 0 -196 76t-74 197q0 51 13 93.5t39 74t56 56t74 42t81.5 29t90.5 20t88.5 12.5t87.5 9v39q0 101 -39.5 148.5t-148.5 47.5q-71 0 -137 -25.5t-154 -74.5v143q177 92 327 92
q191 0 269 -114q51 -64 51 -228v-370q0 -31 1 -48t5.5 -39.5t14 -34t27.5 -20t44 -8.5l37 4zM596 182v297q-45 -4 -77 -9t-80 -15t-80.5 -26t-64.5 -39t-48.5 -58.5t-16.5 -79.5q0 -69 46 -110.5t116 -41.5q89 0 205 82zM563 1239q0 -46 -29 -76t-75 -30q-49 0 -79 29.5
t-30 76.5t30 77t77 30q46 0 76 -30.5t30 -76.5z" />
    <glyph glyph-name="Odotaccent" unicode="&#x22e;" horiz-adv-x="1574" 
d="M1483 684q0 -207 -86 -368t-246 -252t-369 -91q-201 0 -360 94t-245.5 256.5t-86.5 362.5q0 204 91.5 365.5t254 251.5t367.5 90q198 0 354.5 -95t241 -256.5t84.5 -357.5zM1290 664q0 112 -35 214.5t-99 181.5t-162.5 126t-217.5 47q-150 0 -263 -68.5t-171.5 -186.5
t-58.5 -267q0 -117 36.5 -221.5t102.5 -183.5t166 -125t221 -46q112 0 204 41.5t152 114t92.5 168t32.5 205.5zM913 1655q0 -45 -29.5 -76t-74.5 -31q-49 0 -79 30.5t-30 76.5q0 47 30 77.5t77 30.5q46 0 76 -30.5t30 -77.5z" />
    <glyph glyph-name="odotaccent" unicode="&#x22f;" horiz-adv-x="1103" 
d="M1028 463q0 -211 -130 -350.5t-343 -139.5t-345 136.5t-132 351.5q0 214 133 352.5t350 138.5q213 0 340 -139t127 -350zM854 457q0 71 -19 135.5t-56 116t-97.5 82t-136.5 30.5q-135 0 -214 -99t-79 -239q0 -101 35 -185.5t108 -139t172 -54.5q136 0 211.5 100.5
t75.5 252.5zM670 1239q0 -46 -29.5 -76t-75.5 -30q-49 0 -78.5 29t-29.5 77q0 47 29.5 77t76.5 30q46 0 76.5 -30.5t30.5 -76.5z" />
    <glyph glyph-name="Ymacron" unicode="&#x232;" horiz-adv-x="1165" 
d="M1163 1352l-487 -734v-618h-182v618l-490 734l182 34l279 -419q38 -57 129 -209q7 21 129 211l276 417zM846 1569h-531v117h531v-117z" />
    <glyph glyph-name="ymacron" unicode="&#x233;" horiz-adv-x="913" 
d="M895 909l-428 -1048q-24 -58 -47.5 -103t-58 -92t-72.5 -77.5t-90.5 -50t-112.5 -19.5q-47 0 -129 16l27 127q44 -12 94 -12q40 0 75.5 18.5t60 43t49 66.5t37 70t30.5 72l41 98l-353 891l168 33l181 -475q13 -34 26.5 -72t24.5 -70t19 -58t14 -44.5t6 -19.5
q2 7 14.5 45.5t35 102.5t42.5 114l186 477zM723 1167h-530v115h530v-115z" />
    <glyph glyph-name="circumflex" unicode="&#x2c6;" 
d="M569 1389l244 -299l-129 -23l-176 217l-176 -217l-123 23l248 299h112z" />
    <glyph glyph-name="caron" unicode="&#x2c7;" 
d="M813 1366l-242 -299h-114l-248 299l133 23l176 -215l176 215z" />
    <glyph glyph-name="breve" unicode="&#x2d8;" 
d="M801 1354q-11 -127 -87 -202t-204 -75q-122 0 -200 74.5t-87 200.5l111 14q13 -79 56.5 -126.5t119.5 -47.5q81 0 123.5 45.5t58.5 128.5z" />
    <glyph glyph-name="dotaccent" unicode="&#x2d9;" 
d="M618 1239q0 -46 -29 -76t-75 -30q-49 0 -78.5 29t-29.5 77q0 47 29.5 77t76.5 30q46 0 76 -30.5t30 -76.5z" />
    <glyph glyph-name="ring" unicode="&#x2da;" 
d="M311 1219q0 82 59 134t140 52q84 0 143.5 -51.5t59.5 -134.5q0 -82 -59.5 -135.5t-141.5 -53.5t-141.5 53.5t-59.5 135.5zM401 1219q0 -49 31.5 -80t77.5 -31q48 0 79.5 29.5t31.5 81.5q0 48 -32 79t-77 31q-49 0 -80 -29t-31 -81z" />
    <glyph glyph-name="ogonek" unicode="&#x2db;" 
d="M549 0h100q-7 -4 -18 -11.5t-39 -31t-50 -47t-39.5 -56t-17.5 -61.5q0 -36 25 -54t57 -18q25 0 48 4.5t33 9.5l11 5l21 -82q-62 -35 -158 -35q-75 0 -127.5 32.5t-52.5 100.5q0 42 21.5 82.5t52 68.5t60.5 50t52 33z" />
    <glyph glyph-name="tilde" unicode="&#x2dc;" 
d="M750 1337l88 -37q-59 -182 -199 -182q-36 0 -74 16.5t-65.5 36t-62 36t-62.5 16.5q-39 0 -62 -29.5t-41 -77.5l-88 37q30 88 75.5 136t125.5 48q53 0 136 -51t128 -51q39 0 61 26.5t40 75.5z" />
    <glyph glyph-name="hungarumlaut" unicode="&#x2dd;" 
d="M539 1337l-285 -264l-104 39l229 272zM874 1337l-286 -264l-103 39l228 272z" />
    <glyph glyph-name="Delta" unicode="&#x394;" horiz-adv-x="1370" 
d="M1323 0h-1276l555 1389h160zM1104 139l-420 1067l-420 -1067h840z" />
    <glyph glyph-name="Omega" unicode="&#x3a9;" horiz-adv-x="1406" 
d="M1370 0h-561v127q193 106 295 256t102 360q0 145 -61.5 269t-177.5 200t-262 76q-148 0 -264.5 -76t-178 -199.5t-61.5 -269.5q0 -404 399 -616v-127h-563v139h379q-365 205 -365 617q0 183 85.5 334t236 238t334.5 87q135 0 255.5 -51.5t207 -139t136.5 -209t50 -257.5
q0 -410 -363 -619h377v-139z" />
    <glyph glyph-name="pi" unicode="&#x3c0;" horiz-adv-x="1183" 
d="M1139 788h-215v-788h-150v788h-360v-788h-150v788h-219v138h1094v-138z" />
    <glyph glyph-name="Wgrave" unicode="&#x1e80;" horiz-adv-x="1949" 
d="M1933 1350l-538 -1350h-142l-186 471q-56 133 -90 236l-90 -234l-189 -473h-141l-541 1350l179 36l344 -864l112 -307q52 153 113 305l139 350l-190 480l174 36l340 -862q23 -57 48.5 -127t39.5 -111l14 -42q56 161 103 282l335 860zM983 1505l-350 269l155 51l306 -275z
" />
    <glyph glyph-name="wgrave" unicode="&#x1e81;" horiz-adv-x="1429" 
d="M1413 909l-366 -909h-146l-192 496l-185 -496h-145l-363 909l164 33l219 -559q54 -137 72 -207q45 135 72 205l102 270l-102 258l155 33l213 -559q50 -137 64 -193q17 68 67 195l218 557zM733 1059l-301 270l152 47l256 -272z" />
    <glyph glyph-name="Wacute" unicode="&#x1e82;" horiz-adv-x="1949" 
d="M1933 1350l-538 -1350h-142l-186 471q-56 133 -90 236l-90 -234l-189 -473h-141l-541 1350l179 36l344 -864l112 -307q52 153 113 305l139 350l-190 480l174 36l340 -862q23 -57 48.5 -127t39.5 -111l14 -42q56 161 103 282l335 860zM1229 1774l-352 -269l-109 45
l307 275z" />
    <glyph glyph-name="wacute" unicode="&#x1e83;" horiz-adv-x="1429" 
d="M1413 909l-366 -909h-146l-192 496l-185 -496h-145l-363 909l164 33l219 -559q54 -137 72 -207q45 135 72 205l102 270l-102 258l155 33l213 -559q16 -44 32 -92.5t24 -74.5l8 -26q24 84 67 195l218 557zM989 1329l-299 -270l-108 45l256 272z" />
    <glyph glyph-name="Wdieresis" unicode="&#x1e84;" horiz-adv-x="1949" 
d="M1933 1350l-538 -1350h-142l-186 471q-56 133 -90 236l-90 -234l-189 -473h-141l-541 1350l179 36l344 -864q25 -65 52 -139.5t42.5 -118.5t17.5 -49q16 62 113 305l139 350l-190 480l174 36l340 -862q20 -53 44.5 -120.5t40 -111t17.5 -48.5q1 5 16.5 48t40.5 111.5
t46 122.5l335 860zM887 1647q0 -44 -28.5 -72.5t-74.5 -28.5q-44 0 -73 29t-29 72q0 44 29 73t73 29q46 0 74.5 -28t28.5 -74zM1266 1647q0 -43 -28.5 -72t-72.5 -29t-73 29t-29 72q0 44 29 73t73 29q45 0 73 -28.5t28 -73.5z" />
    <glyph glyph-name="wdieresis" unicode="&#x1e85;" horiz-adv-x="1429" 
d="M1413 909l-366 -909h-146l-192 496l-185 -496h-145l-363 909l164 33l219 -559q54 -137 72 -207q45 135 72 205l102 270l-102 258l155 33l213 -559q50 -137 64 -193q17 68 67 195l218 557zM637 1239q0 -44 -29 -72t-73 -28q-45 0 -74 28t-29 72q0 45 29 73.5t74 28.5
q44 0 73 -29t29 -73zM995 1239q0 -44 -28 -72t-72 -28q-45 0 -74.5 28t-29.5 72t29 73t73 29q45 0 73.5 -28.5t28.5 -73.5z" />
    <glyph glyph-name="Ygrave" unicode="&#x1ef2;" horiz-adv-x="1165" 
d="M1163 1352l-487 -734v-618h-182v618l-490 734l182 34l279 -419q38 -57 129 -209q7 21 129 211l276 417zM608 1485l-350 268l156 51l305 -274z" />
    <glyph glyph-name="ygrave" unicode="&#x1ef3;" horiz-adv-x="913" 
d="M895 909l-428 -1048q-24 -58 -47.5 -103t-58 -92t-72.5 -77.5t-90.5 -50t-112.5 -19.5q-47 0 -129 16l27 127q44 -12 94 -12q40 0 75.5 18.5t60 43t49 66.5t37 70t30.5 72l41 98l-353 891l168 33l181 -475q22 -56 44.5 -122t34.5 -104l11 -38q47 149 92 262l186 477z
M459 1038l-301 271l151 47l256 -273z" />
    <glyph glyph-name="endash" unicode="&#x2013;" horiz-adv-x="800" 
d="M799 569l-15 -129h-784l14 129h785z" />
    <glyph glyph-name="emdash" unicode="&#x2014;" horiz-adv-x="1376" 
d="M1378 569l-14 -129h-1364l14 129h1364z" />
    <glyph glyph-name="quoteleft" unicode="&#x2018;" horiz-adv-x="448" 
d="M420 1446q-163 -278 -197 -526l-143 12q33 267 217 541z" />
    <glyph glyph-name="quoteright" unicode="&#x2019;" horiz-adv-x="448" 
d="M399 1460q-18 -139 -74 -280t-137 -260l-131 26q165 288 197 527z" />
    <glyph glyph-name="quotesinglbase" unicode="&#x201a;" horiz-adv-x="450" 
d="M377 227q-37 -289 -211 -551l-131 27q158 271 198 539z" />
    <glyph glyph-name="quotedblleft" unicode="&#x201c;" horiz-adv-x="745" 
d="M717 1446q-165 -287 -195 -526l-145 12q35 268 219 541zM420 1446q-163 -278 -197 -526l-143 12q33 273 217 541z" />
    <glyph glyph-name="quotedblright" unicode="&#x201d;" horiz-adv-x="745" 
d="M696 1460q-18 -145 -72.5 -274.5t-146.5 -265.5l-121 26q160 276 197 527zM399 1460q-35 -267 -219 -540l-123 26q165 288 197 527z" />
    <glyph glyph-name="quotedblbase" unicode="&#x201e;" horiz-adv-x="708" 
d="M612 233q-18 -147 -72 -275.5t-145 -266.5l-123 28q163 278 197 527zM315 233q-18 -145 -72.5 -274.5t-146.5 -267.5l-121 28q161 277 197 527z" />
    <glyph glyph-name="dagger" unicode="&#x2020;" horiz-adv-x="1101" 
d="M991 838h-356v-930h-166v930h-358v143h358v385h166v-385h356v-143z" />
    <glyph glyph-name="daggerdbl" unicode="&#x2021;" horiz-adv-x="1101" 
d="M469 444v394h-358v143h358v385h166v-385h356v-143h-356v-394h356v-143h-356v-393h-166v393h-358v143h358z" />
    <glyph glyph-name="bullet" unicode="&#x2022;" horiz-adv-x="946" 
d="M823 684q0 -146 -102.5 -248t-247.5 -102t-248.5 102t-103.5 248q0 145 103 247.5t249 102.5t248 -102.5t102 -247.5z" />
    <glyph glyph-name="ellipsis" unicode="&#x2026;" horiz-adv-x="1212" 
d="M1122 88q0 -47 -30.5 -77.5t-77.5 -30.5t-77 30.5t-30 77.5q0 49 29.5 79t77.5 30t78 -30t30 -79zM713 88q0 -47 -30.5 -77.5t-76.5 -30.5q-47 0 -77.5 30.5t-30.5 77.5q0 49 30 79t78 30t77.5 -30t29.5 -79zM307 88q0 -47 -30.5 -77.5t-77.5 -30.5t-77 30.5t-30 77.5
q0 49 29.5 79t77.5 30t78 -30t30 -79z" />
    <glyph glyph-name="perthousand" unicode="&#x2030;" horiz-adv-x="2590" 
d="M1704 399q0 -78 -23 -149t-65.5 -127t-110 -89.5t-149.5 -33.5q-157 0 -249.5 110.5t-92.5 270.5q0 171 95.5 287t260.5 116q104 0 181.5 -55t115 -141t37.5 -189zM1251 1343l-553 -1343h-129l555 1343h127zM807 958q0 -107 -38.5 -196t-119 -146t-188.5 -57
q-159 0 -251.5 109.5t-92.5 271.5q0 109 40 200t122.5 148.5t193.5 57.5q79 0 143.5 -32.5t105.5 -87t63 -123.5t22 -145zM1559 381q0 68 -19.5 131.5t-68 111.5t-117.5 48q-98 0 -148.5 -78.5t-50.5 -183.5q0 -52 11.5 -101.5t35 -94t66 -72t98.5 -27.5q51 0 90 24
t60.5 63.5t32 84.5t10.5 94zM662 938q0 50 -11.5 99t-34.5 94t-64.5 72.5t-94.5 27.5q-98 0 -148.5 -78.5t-50.5 -183.5q0 -52 11.5 -102t35 -94.5t66 -71.5t98.5 -27q52 0 91 23.5t60.5 63t31.5 84t10 93.5zM2474 399q0 -78 -23 -149t-65.5 -127t-110 -89.5t-149.5 -33.5
q-157 0 -250.5 110.5t-93.5 270.5q0 170 96 286.5t260 116.5q104 0 182 -55t116 -141t38 -189zM2327 381q0 68 -19.5 131.5t-67.5 111.5t-116 48q-99 0 -149 -78t-50 -184q0 -51 11.5 -101t35 -94.5t65.5 -72t97 -27.5q52 0 91 24t60.5 63.5t31.5 84.5t10 94z" />
    <glyph glyph-name="guilsinglleft" unicode="&#x2039;" horiz-adv-x="571" 
d="M492 160l-70 -119l-346 424l346 422l70 -107l-256 -311z" />
    <glyph glyph-name="guilsinglright" unicode="&#x203a;" horiz-adv-x="571" 
d="M496 465l-349 -424l-67 106l254 312l-254 309l67 119z" />
    <glyph glyph-name="fraction" unicode="&#x2044;" horiz-adv-x="225" 
d="M541 1331l-717 -1333h-139l716 1333h140z" />
    <glyph glyph-name="zero.superior" unicode="&#x2070;" horiz-adv-x="749" 
d="M684 1116q0 -76 -16.5 -147t-51 -134.5t-98 -102t-147.5 -38.5q-67 0 -120.5 25.5t-87 66.5t-56 96t-32 110.5t-9.5 113.5q0 77 18 149t54.5 135.5t101 101.5t147.5 38q80 0 140 -39t93 -102t48.5 -132t15.5 -141zM532 1108q0 43 -6.5 88t-22.5 95t-49.5 82t-80.5 32
q-48 0 -81.5 -29t-49 -76t-21.5 -89t-6 -85q0 -47 6 -92.5t22 -98.5t51.5 -85.5t86.5 -32.5q38 0 66.5 22t44 53.5t25.5 74t12.5 75.5t2.5 66z" />
    <glyph glyph-name="four.superior" unicode="&#x2074;" horiz-adv-x="757" 
d="M715 1020l-15 -100h-120v-207h-142v207h-364l-23 104l438 506l91 -21v-489h135zM442 1020v317l-268 -317h268z" />
    <glyph glyph-name="five.superior" unicode="&#x2075;" horiz-adv-x="720" 
d="M633 969q0 -125 -87.5 -200t-217.5 -75q-133 0 -248 66l35 106q103 -59 186 -59q77 0 125.5 44t48.5 118q0 177 -311 174l65 366h389v-112h-270l-31 -172q62 -2 116.5 -16.5t100.5 -43.5t72.5 -79.5t26.5 -116.5z" />
    <glyph glyph-name="six.superior" unicode="&#x2076;" horiz-adv-x="745" 
d="M676 975q0 -124 -84.5 -202.5t-212.5 -78.5q-141 0 -223 92t-82 232q0 97 37 183.5t101 152t145 114.5t175 80l86 -82q-126 -42 -226 -119.5t-144 -187.5q73 68 178 68q109 0 179.5 -72.5t70.5 -179.5zM539 971q0 68 -42.5 115t-111.5 47q-27 0 -54 -8.5t-45 -20.5
t-32.5 -24t-21.5 -20l-7 -9q-6 -27 -6 -50q0 -78 44.5 -135t119.5 -57q73 0 114.5 45.5t41.5 116.5z" />
    <glyph glyph-name="seven.superior" unicode="&#x2077;" horiz-adv-x="684" 
d="M649 1452q-231 -430 -381 -756l-157 29q179 369 354 672h-410v112h568z" />
    <glyph glyph-name="eight.superior" unicode="&#x2078;" horiz-adv-x="741" 
d="M672 932q0 -76 -45.5 -132t-112 -81t-143.5 -25q-75 0 -141.5 23.5t-113 78t-46.5 130.5q0 142 168 207q-66 32 -100 73.5t-34 106.5q0 102 80 159.5t189 57.5q106 0 184 -53.5t78 -151.5q0 -69 -34.5 -112.5t-102.5 -71.5q85 -35 129.5 -81.5t44.5 -127.5zM508 1319
q0 54 -37 86.5t-96 32.5q-56 0 -93.5 -29.5t-37.5 -81.5q0 -30 12.5 -53t40.5 -41t45.5 -26t54.5 -23q54 27 82.5 56t28.5 79zM516 922q0 27 -10.5 50t-23 37.5t-41 31t-43.5 23.5t-52 23q-63 -27 -100 -64t-37 -95q0 -63 46.5 -102.5t111.5 -39.5t107 36t42 100z" />
    <glyph glyph-name="nine.superior" unicode="&#x2079;" horiz-adv-x="741" 
d="M670 1208q0 -125 -62.5 -235t-162.5 -184.5t-224 -112.5l-94 78q284 117 365 290q-59 -55 -164 -55q-111 0 -181.5 72.5t-70.5 179.5q0 123 86 206t209 83q137 0 218 -93.5t81 -228.5zM524 1171q2 21 2 39q0 83 -42 141t-119 58q-68 0 -111 -46t-43 -112t44 -112.5
t112 -46.5q78 0 157 79z" />
    <glyph glyph-name="zero.inferior" unicode="&#x2080;" horiz-adv-x="749" 
d="M684 119q0 -76 -16.5 -147t-51 -134.5t-98 -102t-147.5 -38.5q-67 0 -120.5 25.5t-87 66.5t-56 96t-32 110.5t-9.5 113.5q0 77 18 149t54.5 135t100.5 101t148 38q64 0 116 -26t85 -68t55.5 -97t31.5 -110.5t9 -111.5zM532 111q0 43 -6.5 88t-22.5 95t-49.5 82t-80.5 32
q-48 0 -81.5 -29t-49 -76t-21.5 -89t-6 -85q0 -47 6 -92.5t22 -98.5t51.5 -85.5t86.5 -32.5q38 0 66.5 22t44 53.5t25.5 74t12.5 75.5t2.5 66z" />
    <glyph glyph-name="one.inferior" unicode="&#x2081;" horiz-adv-x="559" 
d="M412 -285h-146v643q-56 -44 -182 -104l-51 88q267 133 340 190l39 -18v-799z" />
    <glyph glyph-name="two.inferior" unicode="&#x2082;" horiz-adv-x="739" 
d="M676 -172l-23 -113h-569l-18 68q28 26 95 84.5t112.5 101.5t97.5 98.5t79 108t27 98.5q0 61 -37 96.5t-102 35.5q-42 0 -88.5 -19.5t-71.5 -38.5l-26 -20l-48 94q5 4 13.5 11.5t36.5 26.5t57.5 33.5t73 26.5t86.5 12q118 0 188 -66.5t70 -174.5q0 -43 -19 -90t-44 -84.5
t-68.5 -84t-74 -74.5t-78.5 -70.5t-66 -59.5h397z" />
    <glyph glyph-name="three.inferior" unicode="&#x2083;" horiz-adv-x="735" 
d="M651 -59q0 -112 -89 -178t-206 -66q-51 0 -97.5 9.5t-77 23.5t-53.5 28t-34 24l-10 9l43 96q3 -3 9.5 -8.5t26.5 -20t42.5 -25t56.5 -19.5t68 -9q68 0 111.5 35.5t43.5 102.5q0 70 -55 101.5t-141 31.5h-66v98h139q4 1 11 3.5t25 13t31.5 24t24.5 37t11 51.5
q0 55 -36.5 85t-96.5 30q-41 0 -83 -16t-63 -32l-22 -16l-45 88q4 4 11.5 10t32 21.5t51 27.5t68 21.5t83.5 9.5q102 0 176.5 -55t74.5 -151q0 -123 -127 -185q76 -21 119 -72t43 -128z" />
    <glyph glyph-name="four.inferior" unicode="&#x2084;" horiz-adv-x="757" 
d="M715 23l-15 -101h-120v-207h-142v207h-364l-23 105l438 505l91 -20v-489h135zM442 23v317l-268 -317h268z" />
    <glyph glyph-name="five.inferior" unicode="&#x2085;" horiz-adv-x="720" 
d="M633 -29q0 -125 -87.5 -199.5t-217.5 -74.5q-135 0 -248 65l35 107q103 -59 186 -59q78 0 126 43.5t48 117.5q0 177 -311 174l65 367h389v-113h-270l-31 -172q62 -2 116.5 -16.5t100.5 -43.5t72.5 -79.5t26.5 -116.5z" />
    <glyph glyph-name="six.inferior" unicode="&#x2086;" horiz-adv-x="745" 
d="M676 -23q0 -123 -84 -201.5t-213 -78.5q-141 0 -223 92t-82 231q0 97 37 183.5t101 152.5t145 115t175 80l86 -82q-126 -42 -226 -119.5t-144 -187.5q72 67 178 67q109 0 179.5 -72.5t70.5 -179.5zM539 -27q0 68 -42.5 115t-111.5 47q-27 0 -54 -8.5t-45 -20.5t-32.5 -24
t-21.5 -20l-7 -9q-6 -26 -6 -49q0 -78 44.5 -135t119.5 -57q73 0 114.5 45t41.5 116z" />
    <glyph glyph-name="seven.inferior" unicode="&#x2087;" horiz-adv-x="684" 
d="M649 455q-231 -430 -381 -756l-157 29q176 363 354 671h-410v113h568z" />
    <glyph glyph-name="eight.inferior" unicode="&#x2088;" horiz-adv-x="741" 
d="M672 -66q0 -76 -45.5 -131.5t-112 -80.5t-143.5 -25q-76 0 -142 23.5t-112.5 77.5t-46.5 130q0 142 168 207q-66 32 -100 73.5t-34 106.5q0 102 80 159.5t189 57.5q106 0 184 -53t78 -151q0 -69 -34.5 -113t-102.5 -72q85 -35 129.5 -81.5t44.5 -127.5zM508 322
q0 54 -37 86t-96 32q-57 0 -94 -29t-37 -81q0 -24 10.5 -45t23 -34t37.5 -27t39 -20.5t43 -17.5q54 26 82.5 56t28.5 80zM516 -76q0 27 -10.5 50t-23.5 38t-40.5 31.5t-44 24t-51.5 22.5q-137 -59 -137 -160q0 -63 46.5 -102t111.5 -39t107 35.5t42 99.5z" />
    <glyph glyph-name="nine.inferior" unicode="&#x2089;" horiz-adv-x="741" 
d="M670 211q0 -125 -62.5 -235.5t-163 -185t-223.5 -112.5l-94 78q123 51 222 124.5t143 166.5q-59 -55 -164 -55q-111 0 -181.5 72.5t-70.5 179.5q0 123 86 205.5t209 82.5q137 0 218 -93t81 -228zM524 174q2 21 2 39q0 83 -42 141t-119 58q-68 0 -111 -46t-43 -112
t44 -113t112 -47q77 0 157 80z" />
    <glyph glyph-name="Euro" unicode="&#x20ac;" horiz-adv-x="1101" 
d="M66 754v100h165q21 101 62 187.5t104.5 157.5t157 112t207.5 41q171 0 315 -107l-65 -131q-113 88 -250 88q-302 0 -363 -348h437v-100h-449q-2 -31 -2 -95v-61h451v-100h-441q12 -79 37.5 -143.5t67.5 -117t108 -81.5t150 -29q80 0 155 30t119 64l55 -125
q-59 -49 -151.5 -86t-198.5 -37q-115 0 -207 39.5t-154 111.5t-100 165.5t-53 208.5h-157v100h147v61q0 29 4 95h-151z" />
    <glyph glyph-name="liter" unicode="&#x2113;" horiz-adv-x="768" 
d="M184 414l-18 -17q-61 -61 -82 -61q-11 0 -20 10.5t-9 22.5q0 20 41 55q58 53 103 106q87 448 182.5 655.5t218.5 207.5q57 0 93 -44.5t36 -113.5q0 -158 -85.5 -321t-272.5 -361q-66 -339 -66 -426q0 -51 37 -51q53 0 102 110q16 37 39 37q27 0 27 -26q0 -52 -53 -125
q-71 -99 -156 -99q-64 0 -101.5 51.5t-37.5 139.5q0 73 18 223zM399 723l-6 -39q124 138 190 277t66 264q0 34 -12.5 57t-32.5 23q-34 0 -61 -42.5t-56 -142.5q-41 -149 -88 -397z" />
    <glyph glyph-name="trademark" unicode="&#x2122;" horiz-adv-x="1361" 
d="M1247 899h-98l-29 256l-14 145q-33 -74 -62 -135l-118 -266h-68l-117 262l-61 137q-8 -79 -14 -149l-25 -250h-92l72 576h71l137 -306l68 -153q35 79 66 151l135 308h76zM514 1393h-199v-494h-100v494h-199v82h498v-82z" />
    <glyph glyph-name="estimated" unicode="&#x212e;" horiz-adv-x="1406" 
d="M1407 655h-1149v-407q102 -110 213 -152.5t250 -42.5q142 0 274 52t211 147h103q-97 -125 -252 -197.5t-338 -72.5q-149 0 -283 55.5t-229.5 149t-151 223t-55.5 272.5t55.5 273t150 224t224 149.5t272.5 55.5t273.5 -55.5t225 -149.5t150.5 -224t56 -273v-27zM1149 725
v399q-187 193 -449 193q-112 0 -241 -50t-201 -141v-401h891z" />
    <glyph glyph-name="onethird" unicode="&#x2153;" horiz-adv-x="1789" 
d="M547 535h-146v643q-59 -47 -182 -105l-51 88q264 131 340 191l39 -19v-798zM1323 1331l-717 -1333h-139l717 1333h139zM1681 225q0 -112 -89 -177.5t-206 -65.5q-51 0 -97.5 9.5t-77 23.5t-53.5 28t-34 23l-10 10l43 96q3 -3 9.5 -8.5t26.5 -20t42.5 -25t56.5 -19.5
t68 -9q69 0 112.5 35t43.5 102q0 70 -55.5 101.5t-141.5 31.5h-66v99h140q4 1 11 3.5t24.5 13t31 24t24.5 37t11 51.5q0 55 -36.5 84.5t-96.5 29.5q-41 0 -83 -16t-63 -32l-22 -15l-45 88q4 4 11.5 10t32 21.5t51 27.5t68 21.5t83.5 9.5q102 0 177 -55.5t75 -151.5
q0 -122 -127 -184q76 -21 118.5 -72.5t42.5 -128.5z" />
    <glyph glyph-name="twothirds" unicode="&#x2154;" horiz-adv-x="1789" 
d="M696 647l-22 -112h-570l-18 67q28 26 95 84.5t113 101.5t97.5 99t79 108.5t27.5 98.5q0 60 -37 95.5t-103 35.5q-42 0 -88.5 -19.5t-71.5 -39.5l-26 -19l-47 94q5 5 13.5 12t36.5 26.5t57 34t72.5 26.5t86.5 12q118 0 188 -67t70 -175q0 -43 -19 -90t-44 -84.5t-68.5 -84
t-74 -74.5t-78.5 -70.5t-66 -59.5h397zM1323 1331l-717 -1333h-139l717 1333h139zM1681 225q0 -112 -89 -177.5t-206 -65.5q-51 0 -97.5 9.5t-77 23.5t-53.5 28t-34 23l-10 10l43 96q3 -3 9.5 -8.5t26.5 -20t42.5 -25t56.5 -19.5t68 -9q69 0 112.5 35t43.5 102
q0 70 -55.5 101.5t-141.5 31.5h-66v99h140q4 1 11 3.5t24.5 13t31 24t24.5 37t11 51.5q0 55 -36.5 84.5t-96.5 29.5q-41 0 -83 -16t-63 -32l-22 -15l-45 88q4 4 11.5 10t32 21.5t51 27.5t68 21.5t83.5 9.5q102 0 177 -55.5t75 -151.5q0 -122 -127 -184q76 -21 118.5 -72.5
t42.5 -128.5z" />
    <glyph glyph-name="onefifth" unicode="&#x2155;" horiz-adv-x="1789" 
d="M1323 1331l-717 -1333h-139l717 1333h139zM547 535h-146v643q-59 -47 -182 -105l-51 88q264 131 340 191l39 -19v-798zM1673 256q0 -125 -87.5 -199.5t-217.5 -74.5q-135 0 -248 65l35 107q105 -60 186 -60q78 0 126.5 44t48.5 118q0 177 -312 174l66 367h389v-113h-270
l-31 -172q62 -2 116 -16.5t100 -43.5t72.5 -79.5t26.5 -116.5z" />
    <glyph glyph-name="twofifths" unicode="&#x2156;" horiz-adv-x="1789" 
d="M696 647l-22 -112h-570l-18 67q28 26 95 84.5t113 101.5t97.5 99t79 108.5t27.5 98.5q0 60 -37 95.5t-103 35.5q-42 0 -88.5 -19.5t-71.5 -39.5l-26 -19l-47 94q5 5 13.5 12t36.5 26.5t57 34t72.5 26.5t86.5 12q118 0 188 -67t70 -175q0 -43 -19 -90t-44 -84.5t-68.5 -84
t-74 -74.5t-78.5 -70.5t-66 -59.5h397zM1323 1331l-717 -1333h-139l717 1333h139zM1673 256q0 -125 -87.5 -199.5t-217.5 -74.5q-135 0 -248 65l35 107q105 -60 186 -60q78 0 126.5 44t48.5 118q0 177 -312 174l66 367h389v-113h-270l-31 -172q62 -2 116 -16.5t100 -43.5
t72.5 -79.5t26.5 -116.5z" />
    <glyph glyph-name="threefifths" unicode="&#x2157;" horiz-adv-x="1789" 
d="M1323 1331l-717 -1333h-139l717 1333h139zM1673 256q0 -125 -87.5 -199.5t-217.5 -74.5q-135 0 -248 65l35 107q105 -60 186 -60q78 0 126.5 44t48.5 118q0 177 -312 174l66 367h389v-113h-270l-31 -172q62 -2 116 -16.5t100 -43.5t72.5 -79.5t26.5 -116.5zM676 760
q0 -112 -89 -178t-206 -66q-51 0 -97.5 9.5t-77 23.5t-53.5 28t-33 23l-11 10l43 97q3 -3 9 -8.5t26.5 -20t42.5 -25t56 -19.5t68 -9q69 0 112.5 35t43.5 102q0 70 -55.5 101.5t-141.5 31.5h-65v98h139q4 1 11 3.5t24.5 13t31 24t24.5 37t11 51.5q0 55 -36.5 85t-96.5 30
q-41 0 -83 -15.5t-63 -31.5l-22 -16l-45 88q4 4 11.5 10t32 21.5t51 27.5t68 21.5t83.5 9.5q102 0 177 -55.5t75 -151.5q0 -122 -127 -184q76 -21 119 -72.5t43 -128.5z" />
    <glyph glyph-name="fourfifths" unicode="&#x2158;" horiz-adv-x="1789" 
d="M723 842l-14 -101h-121v-206h-142v206h-364l-23 105l439 506l90 -21v-489h135zM451 842v317l-269 -317h269zM1323 1331l-717 -1333h-139l717 1333h139zM1673 256q0 -125 -87.5 -199.5t-217.5 -74.5q-135 0 -248 65l35 107q105 -60 186 -60q78 0 126.5 44t48.5 118
q0 177 -312 174l66 367h389v-113h-270l-31 -172q62 -2 116 -16.5t100 -43.5t72.5 -79.5t26.5 -116.5z" />
    <glyph glyph-name="onesixth" unicode="&#x2159;" horiz-adv-x="1789" 
d="M1698 262q0 -123 -84 -201.5t-213 -78.5q-141 0 -223 92t-82 231q0 97 37 183.5t101 152.5t145 115t175 80l86 -82q-126 -42 -226 -120t-144 -188q73 68 178 68q109 0 179.5 -72.5t70.5 -179.5zM1561 258q0 68 -42.5 115t-111.5 47q-27 0 -54 -8.5t-45 -20.5t-32.5 -24
t-21.5 -21l-7 -8q-6 -26 -6 -49q0 -78 44.5 -135.5t119.5 -57.5q73 0 114.5 45.5t41.5 116.5zM547 535h-146v643q-59 -47 -182 -105l-51 88q264 131 340 191l39 -19v-798zM1323 1331l-717 -1333h-139l717 1333h139z" />
    <glyph glyph-name="fivesixths" unicode="&#x215a;" horiz-adv-x="1789" 
d="M1698 262q0 -123 -84 -201.5t-213 -78.5q-141 0 -223 92t-82 231q0 97 37 183.5t101 152.5t145 115t175 80l86 -82q-126 -42 -226 -120t-144 -188q73 68 178 68q109 0 179.5 -72.5t70.5 -179.5zM1561 258q0 68 -42.5 115t-111.5 47q-27 0 -54 -8.5t-45 -20.5t-32.5 -24
t-21.5 -21l-7 -8q-6 -26 -6 -49q0 -78 44.5 -135.5t119.5 -57.5q73 0 114.5 45.5t41.5 116.5zM668 791q0 -125 -88 -200t-218 -75q-132 0 -247 66l35 106q103 -59 186 -59q77 0 125.5 44t48.5 118q0 177 -311 174l65 366h389v-112h-270l-31 -172q62 -2 116.5 -16.5
t100.5 -43.5t72.5 -79.5t26.5 -116.5zM1323 1331l-717 -1333h-139l717 1333h139z" />
    <glyph glyph-name="oneeighth" unicode="&#x215b;" horiz-adv-x="1789" 
d="M1323 1331l-717 -1333h-139l717 1333h139zM547 535h-146v643q-59 -47 -182 -105l-51 88q264 131 340 191l39 -19v-798zM1698 219q0 -76 -45.5 -131.5t-112 -80.5t-143.5 -25q-76 0 -142 23.5t-112.5 77.5t-46.5 130q0 142 168 207q-66 32 -100 73.5t-34 106.5
q0 102 80 159.5t189 57.5q106 0 184 -53.5t78 -151.5q0 -69 -34.5 -112.5t-102.5 -71.5q85 -35 129.5 -81.5t44.5 -127.5zM1534 606q0 54 -37 86.5t-96 32.5q-56 0 -93.5 -29.5t-37.5 -81.5q0 -30 12.5 -53t40.5 -41t45.5 -26t54.5 -23q54 27 82.5 56t28.5 79zM1542 209
q0 27 -10.5 50t-23.5 38t-40.5 31.5t-44 24t-51.5 22.5q-137 -59 -137 -160q0 -63 46.5 -102t111.5 -39t107 35.5t42 99.5z" />
    <glyph glyph-name="threeeighths" unicode="&#x215c;" horiz-adv-x="1789" 
d="M1323 1331l-717 -1333h-139l717 1333h139zM1698 219q0 -76 -45.5 -131.5t-112 -80.5t-143.5 -25q-76 0 -142 23.5t-112.5 77.5t-46.5 130q0 142 168 207q-66 32 -100 73.5t-34 106.5q0 102 80 159.5t189 57.5q106 0 184 -53.5t78 -151.5q0 -69 -34.5 -112.5t-102.5 -71.5
q85 -35 129.5 -81.5t44.5 -127.5zM1534 606q0 54 -37 86.5t-96 32.5q-56 0 -93.5 -29.5t-37.5 -81.5q0 -30 12.5 -53t40.5 -41t45.5 -26t54.5 -23q54 27 82.5 56t28.5 79zM1542 209q0 27 -10.5 50t-23.5 38t-40.5 31.5t-44 24t-51.5 22.5q-137 -59 -137 -160
q0 -63 46.5 -102t111.5 -39t107 35.5t42 99.5zM676 760q0 -112 -89 -178t-206 -66q-51 0 -97.5 9.5t-77 23.5t-53.5 28t-33 23l-11 10l43 97q3 -3 9 -8.5t26.5 -20t42.5 -25t56 -19.5t68 -9q69 0 112.5 35t43.5 102q0 70 -55.5 101.5t-141.5 31.5h-65v98h139q4 1 11 3.5
t24.5 13t31 24t24.5 37t11 51.5q0 55 -36.5 85t-96.5 30q-41 0 -83 -15.5t-63 -31.5l-22 -16l-45 88q4 4 11.5 10t32 21.5t51 27.5t68 21.5t83.5 9.5q102 0 177 -55.5t75 -151.5q0 -122 -127 -184q76 -21 119 -72.5t43 -128.5z" />
    <glyph glyph-name="fiveeighths" unicode="&#x215d;" horiz-adv-x="1789" 
d="M668 791q0 -125 -88 -200t-218 -75q-132 0 -247 66l35 106q103 -59 186 -59q77 0 125.5 44t48.5 118q0 177 -311 174l65 366h389v-112h-270l-31 -172q62 -2 116.5 -16.5t100.5 -43.5t72.5 -79.5t26.5 -116.5zM1323 1331l-717 -1333h-139l717 1333h139zM1698 219
q0 -76 -45.5 -131.5t-112 -80.5t-143.5 -25q-76 0 -142 23.5t-112.5 77.5t-46.5 130q0 142 168 207q-66 32 -100 73.5t-34 106.5q0 102 80 159.5t189 57.5q106 0 184 -53.5t78 -151.5q0 -69 -34.5 -112.5t-102.5 -71.5q85 -35 129.5 -81.5t44.5 -127.5zM1534 606
q0 54 -37 86.5t-96 32.5q-56 0 -93.5 -29.5t-37.5 -81.5q0 -30 12.5 -53t40.5 -41t45.5 -26t54.5 -23q54 27 82.5 56t28.5 79zM1542 209q0 27 -10.5 50t-23.5 38t-40.5 31.5t-44 24t-51.5 22.5q-137 -59 -137 -160q0 -63 46.5 -102t111.5 -39t107 35.5t42 99.5z" />
    <glyph glyph-name="seveneighths" unicode="&#x215e;" horiz-adv-x="1789" 
d="M700 1274q-231 -430 -381 -756l-157 29q179 369 354 672h-410v112h568zM1323 1331l-717 -1333h-139l717 1333h139zM1698 219q0 -76 -45.5 -131.5t-112 -80.5t-143.5 -25q-76 0 -142 23.5t-112.5 77.5t-46.5 130q0 142 168 207q-66 32 -100 73.5t-34 106.5q0 102 80 159.5
t189 57.5q106 0 184 -53.5t78 -151.5q0 -69 -34.5 -112.5t-102.5 -71.5q85 -35 129.5 -81.5t44.5 -127.5zM1534 606q0 54 -37 86.5t-96 32.5q-56 0 -93.5 -29.5t-37.5 -81.5q0 -30 12.5 -53t40.5 -41t45.5 -26t54.5 -23q54 27 82.5 56t28.5 79zM1542 209q0 27 -10.5 50
t-23.5 38t-40.5 31.5t-44 24t-51.5 22.5q-137 -59 -137 -160q0 -63 46.5 -102t111.5 -39t107 35.5t42 99.5z" />
    <glyph glyph-name="onefraction" unicode="&#x215f;" horiz-adv-x="1007" 
d="M547 535h-146v643q-59 -47 -182 -105l-51 88q264 131 340 191l39 -19v-798zM1323 1331l-717 -1333h-139l717 1333h139z" />
    <glyph glyph-name="partialdiff" unicode="&#x2202;" horiz-adv-x="1019" 
d="M958 510q0 -108 -30 -204.5t-86 -171.5t-145.5 -119t-200.5 -44q-141 0 -247.5 66t-160 172.5t-53.5 236.5q0 122 55 226t155.5 167.5t223.5 63.5q184 0 289 -108q-70 195 -226.5 313t-384.5 152l21 133q176 -18 322 -87.5t249.5 -181.5t161 -269.5t57.5 -344.5zM799 453
q0 138 -82.5 231.5t-218.5 93.5q-133 0 -221.5 -101.5t-88.5 -234.5q0 -91 31.5 -165t103 -122.5t173.5 -48.5q134 0 218.5 104t84.5 243z" />
    <glyph glyph-name="product" unicode="&#x220f;" horiz-adv-x="1433" 
d="M1368 -520h-487v137h172v1806h-672v-1806h170v-137h-483v137h157v1806h-157v140h1300v-140h-158v-1806h158v-137z" />
    <glyph glyph-name="summation" unicode="&#x2211;" horiz-adv-x="1366" 
d="M1253 -520h-1206v153l518 930l-518 848v152h1186v-471h-137l-13 331h-866l522 -862l-526 -944h891l6 334h143v-471z" />
    <glyph glyph-name="minus" unicode="&#x2212;" horiz-adv-x="1101" 
d="M954 401h-807v121h807v-121z" />
    <glyph glyph-name="radical" unicode="&#x221a;" horiz-adv-x="1368" 
d="M1378 1583h-407l-451 -1583h-186l-172 623h-172v139h295l75 -268q14 -47 29.5 -120t24.5 -122l8 -49h12q86 385 166 663l242 856h536v-139z" />
    <glyph glyph-name="infinity" unicode="&#x221e;" horiz-adv-x="1368" 
d="M1339 606q0 -139 -87 -229t-226 -90q-195 0 -338 217q-159 -217 -346 -217q-140 0 -227.5 91t-87.5 230q0 136 87 227t224 91q195 0 342 -215q148 215 344 215q140 0 227.5 -90.5t87.5 -229.5zM1184 610q0 76 -51 128.5t-127 52.5q-41 0 -77 -15t-68.5 -46.5t-52 -56
t-48.5 -65.5q29 -43 49 -68.5t52 -56t69 -45t80 -14.5q77 0 125.5 54t48.5 132zM608 606q-57 85 -115 135t-135 50q-78 0 -127 -54.5t-49 -132.5q0 -75 52 -127.5t128 -52.5q75 0 133.5 50.5t112.5 131.5z" />
    <glyph glyph-name="integral" unicode="&#x222b;" horiz-adv-x="1021" 
d="M834 1540l-33 -133q-55 20 -96 20q-28 0 -48.5 -7.5t-33 -24.5t-20 -33.5t-10.5 -47t-4 -52t-1 -60.5v-1392q0 -159 -45 -226q-36 -52 -97 -77t-131 -25q-65 0 -127 18l33 135q49 -22 96 -22q32 0 54 11.5t34 28.5t19 45.5t8.5 53t1.5 60.5v1425q0 128 25 186
q30 69 93 104.5t142 35.5q66 0 140 -23z" />
    <glyph glyph-name="approxequal" unicode="&#x2248;" horiz-adv-x="1101" 
d="M885 735l84 -59l-11 -22t-30 -49t-48 -61.5t-63.5 -48.5t-77.5 -22q-49 0 -102.5 22t-91.5 48.5t-85 48.5t-85 22q-29 0 -56 -14t-45 -34t-31.5 -40.5t-19.5 -34.5l-6 -14l-84 58q3 8 9 21.5t27.5 48.5t46 61.5t64 48.5t82.5 22q48 0 101 -21.5t92 -48t87 -48t87 -21.5
q26 0 51.5 14t43.5 34t32.5 40.5t21.5 34.5zM885 410l84 -60q-4 -8 -11 -21.5t-30 -48t-48 -61t-63.5 -48t-77.5 -21.5q-49 0 -102.5 22t-91.5 48.5t-85 48.5t-85 22q-46 0 -85.5 -34.5t-55.5 -68.5l-17 -34l-84 55q3 8 9 22t27.5 49.5t46 62.5t64 49t82.5 22q48 0 101 -22
t92 -49t87 -49t87 -22q26 0 51.5 14t43.5 34.5t32.5 41t21.5 34.5z" />
    <glyph glyph-name="notequal" unicode="&#x2260;" horiz-adv-x="1101" 
d="M954 244h-442l-94 -219h-135l92 219h-228v127h283l94 221h-377v127h431l92 215h137l-92 -215h239v-127h-295l-94 -221h389v-127z" />
    <glyph glyph-name="lessequal" unicode="&#x2264;" horiz-adv-x="1101" 
d="M954 207l-807 274v129l807 277v-133l-647 -207l647 -209v-131zM954 0h-807v129h807v-129z" />
    <glyph glyph-name="greaterequal" unicode="&#x2265;" horiz-adv-x="1101" 
d="M954 0h-807v129h807v-129zM954 481l-807 -274v131l648 209l-648 207v133l807 -277v-129z" />
    <glyph glyph-name="house" unicode="&#x2302;" horiz-adv-x="1366" 
d="M0 0v780l682 672l684 -672v-780h-1366zM104 104h1158v631l-582 568l-576 -568v-631z" />
    <glyph glyph-name="filledbox" unicode="&#x25a0;" horiz-adv-x="1366" 
d="M1366 0h-1366v1366h1366v-1366z" />
    <glyph glyph-name="whitebox" unicode="&#x25a1;" horiz-adv-x="1366" 
d="M1366 0h-1366v1366h1366v-1366zM1270 96v1174h-1174v-1174h1174z" />
    <glyph glyph-name="filledboxsm" unicode="&#x25aa;" horiz-adv-x="751" 
d="M752 307h-752v752h752v-752z" />
    <glyph glyph-name="whiteboxsm" unicode="&#x25ab;" horiz-adv-x="751" 
d="M752 307h-752v752h752v-752zM655 403v560h-559v-560h559z" />
    <glyph glyph-name="triagup" unicode="&#x25b2;" horiz-adv-x="1366" 
d="M1296 137h-1228l614 1149z" />
    <glyph glyph-name="triagsmup" unicode="&#x25b4;" 
d="M954 301h-886l444 829z" />
    <glyph glyph-name="triagright" unicode="&#x25b6;" horiz-adv-x="1366" 
d="M129 68v1228l1149 -614z" />
    <glyph glyph-name="triagsmright" unicode="&#x25b8;" 
d="M129 1126l829 -442l-829 -444v886z" />
    <glyph glyph-name="triagdn" unicode="&#x25bc;" horiz-adv-x="1366" 
d="M68 1229h1228l-614 -1149z" />
    <glyph glyph-name="triagsmdn" unicode="&#x25be;" 
d="M68 1065h886l-442 -829z" />
    <glyph glyph-name="triagleft" unicode="&#x25c0;" horiz-adv-x="1366" 
d="M1237 1296v-1228l-1149 614z" />
    <glyph glyph-name="triagsmleft" unicode="&#x25c2;" 
d="M129 684l829 442v-886z" />
    <glyph glyph-name="lozenge" unicode="&#x25ca;" horiz-adv-x="1368" 
d="M1225 694l-539 -747l-543 747l543 750zM1051 694l-365 502l-369 -502l369 -504z" />
    <glyph glyph-name="circle" unicode="&#x25cb;" horiz-adv-x="1067" 
d="M541 1206q141 0 262.5 -71t192.5 -192t71 -261q0 -106 -42.5 -203.5t-114 -167.5t-170.5 -111.5t-208 -41.5q-143 0 -265.5 70t-194.5 190.5t-72 261.5q0 144 72 265t196.5 191t272.5 70zM528 1112q-178 0 -305 -126.5t-127 -303.5q0 -179 127.5 -304.5t308.5 -125.5
q182 0 310.5 125.5t128.5 302.5q0 181 -128.5 306.5t-314.5 125.5z" />
    <glyph glyph-name="blackcircle" unicode="&#x25cf;" horiz-adv-x="1067" 
d="M541 1206q141 0 262.5 -71t192.5 -192t71 -261q0 -106 -42.5 -203.5t-114 -167.5t-170.5 -111.5t-208 -41.5q-143 0 -265.5 70t-194.5 190.5t-72 261.5q0 144 72 265t196.5 191t272.5 70z" />
    <glyph glyph-name="invbullet" unicode="&#x25d8;" horiz-adv-x="1366" 
d="M0 0v1366h1366v-1366h-1366zM680 969q-115 0 -197 -84t-82 -203t82 -202t199 -83t200 83.5t83 201.5q0 120 -82.5 203.5t-202.5 83.5z" />
    <glyph glyph-name="invcircle" unicode="&#x25d9;" horiz-adv-x="1366" 
d="M688 1112q178 0 305 -126.5t127 -303.5q0 -179 -127.5 -304.5t-310.5 -125.5q-181 0 -308.5 125.5t-127.5 304.5q0 180 128 305t314 125zM1366 0h-1366v1366h1366v-1366zM676 1208q-106 0 -203 -42t-168 -113t-113 -168t-42 -203q0 -141 71.5 -262t194 -191.5
t266.5 -70.5q108 0 207 42t171 112t114.5 167t42.5 203q0 144 -72 265t-196.5 191t-272.5 70z" />
    <glyph glyph-name="whitebullet" unicode="&#x25e6;" horiz-adv-x="563" 
d="M285 967q119 0 198.5 -81t79.5 -202t-80 -201t-200 -80q-121 0 -202 80t-81 201q0 124 80.5 203.5t204.5 79.5zM279 872q-76 0 -127.5 -55.5t-51.5 -132.5t52 -131.5t129 -54.5q78 0 130 54t52 132q0 79 -51.5 133.5t-132.5 54.5z" />
    <glyph glyph-name="whitemedbox" unicode="&#x25fb;" horiz-adv-x="1079" 
d="M1079 143h-1079v1080h1079v-1080zM983 240v886h-887v-886h887z" />
    <glyph glyph-name="filledmedbox" unicode="&#x25fc;" horiz-adv-x="1079" 
d="M1079 143h-1079v1080h1079v-1080z" />
    <glyph glyph-name="whitemedboxsm" unicode="&#x25fd;" horiz-adv-x="874" 
d="M874 246h-874v874h874v-874zM778 342v682h-682v-682h682z" />
    <glyph glyph-name="blackmedboxsm" unicode="&#x25fe;" horiz-adv-x="874" 
d="M874 246h-874v874h874v-874z" />
    <glyph glyph-name="smileface" unicode="&#x263a;" horiz-adv-x="1296" 
d="M459 954q35 0 61.5 -26.5t26.5 -63.5t-26.5 -63.5t-63.5 -26.5t-63.5 26.5t-26.5 63.5q0 38 27 64t65 26zM844 954q35 0 61.5 -26.5t26.5 -63.5t-26.5 -63.5t-63.5 -26.5t-63.5 26.5t-26.5 63.5q0 38 27 64t65 26zM227 762q37 -157 146.5 -241.5t275.5 -84.5
q167 0 277 84.5t145 241.5q-34 -473 -422 -473q-385 0 -422 473zM657 1331q171 0 318.5 -87.5t234 -237t86.5 -324.5t-87 -324t-236 -236t-324 -87q-176 0 -325.5 87t-236.5 236t-87 324q0 134 51 254t138.5 206.5t209.5 137.5t258 51zM641 1247q-112 0 -215 -45t-178 -121
t-119.5 -180.5t-44.5 -218.5q0 -153 75.5 -282.5t205 -205t282.5 -75.5t283 75.5t206 205t76 282.5q0 116 -44.5 221t-121 180t-182 119.5t-223.5 44.5z" />
    <glyph glyph-name="invsmileface" unicode="&#x263b;" horiz-adv-x="1296" 
d="M657 1331q171 0 318.5 -87.5t234 -237t86.5 -324.5t-87 -324t-236 -236t-324 -87q-176 0 -325.5 87t-236.5 236t-87 324q0 134 51 254t138.5 206.5t209.5 137.5t258 51zM455 954q-35 0 -61.5 -26.5t-26.5 -63.5t26.5 -63.5t63.5 -26.5t63.5 26.5t26.5 63.5q0 38 -27 64
t-65 26zM840 954q-35 0 -61.5 -26.5t-26.5 -63.5t25.5 -63.5t62.5 -26.5q38 0 64 26.5t26 63.5t-26 63.5t-64 26.5zM227 762q37 -473 422 -473q388 0 422 473q-35 -157 -145 -241.5t-277 -84.5q-166 0 -275.5 84.5t-146.5 241.5z" />
    <glyph glyph-name="sun" unicode="&#x263c;" horiz-adv-x="1296" 
d="M295 961l-150 151l72 70l152 -150q95 74 225 90v215h100v-215q141 -16 230 -90l149 150l70 -70l-148 -151q77 -95 95 -228h206v-100h-206q-18 -132 -95 -227l148 -152l-70 -70l-151 150q-88 -74 -228 -90v-215h-100v215q-119 12 -227 88l-150 -148l-72 70l150 149
q-84 104 -96 230h-199v100h199q16 123 96 228zM641 1008q-140 0 -228.5 -94t-88.5 -230q0 -137 92.5 -229.5t228.5 -92.5q137 0 228.5 92.5t91.5 231.5q0 138 -91.5 230t-232.5 92z" />
    <glyph glyph-name="female" unicode="&#x2640;" horiz-adv-x="978" 
d="M539 0h-99v340h-331v88h331v227q-140 22 -229.5 124.5t-89.5 242.5q0 157 104 263t264 106q167 0 268 -105t101 -264q0 -140 -89.5 -242.5t-229.5 -124.5v-227h331v-88h-331v-340zM485 1300q-112 0 -189 -77t-77 -201q0 -116 79 -197.5t191 -81.5t191.5 81.5t79.5 197.5
q0 119 -77 198.5t-198 79.5z" />
    <glyph glyph-name="male" unicode="&#x2642;" horiz-adv-x="1353" 
d="M702 782l310 310q-102 23 -181 62t-79 67q0 10 7.5 17t18.5 7q6 0 41 -6q87 -18 170 -18q118 0 191 20q33 10 47 10q20 0 20 -22q0 -8 -6 -31q-27 -92 -27 -192q0 -73 21 -172q6 -37 6 -39q0 -12 -8 -20.5t-19 -8.5q-29 0 -71 80.5t-64 175.5l-307 -307q76 -112 76 -226
q0 -172 -108 -273t-267 -101q-155 0 -262 104t-107 268q0 159 105.5 267t263.5 108q121 0 229 -80zM469 766q-111 0 -186.5 -78t-75.5 -199q0 -116 77 -197t189 -81q116 0 194 75t78 201q0 117 -79.5 198t-196.5 81z" />
    <glyph glyph-name="spade" unicode="&#x2660;" horiz-adv-x="1366" 
d="M1149 0h-932v37q219 28 334 150.5t119 334.5q-43 -100 -118 -154.5t-169 -54.5q-104 0 -178 75.5t-74 182.5q0 94 55 175t203 206q248 205 295 453q46 -246 293 -453q149 -124 203.5 -205t54.5 -176q0 -107 -74 -182.5t-178 -75.5q-94 0 -169 54.5t-118 154.5
q6 -212 120.5 -334.5t332.5 -150.5v-37z" />
    <glyph glyph-name="club" unicode="&#x2663;" horiz-adv-x="1366" 
d="M1149 0h-932v37q230 32 341.5 160.5t111.5 363.5q-149 -260 -363 -260q-126 0 -213.5 90.5t-87.5 220.5q0 126 78 213.5t190 87.5q43 0 72.5 -9.5t106.5 -49.5q-74 106 -74 205q0 120 89.5 206.5t213.5 86.5t213.5 -86.5t89.5 -206.5q0 -95 -72 -205q77 40 106.5 49.5
t72.5 9.5q112 0 190 -87.5t78 -213.5q0 -130 -87.5 -220.5t-213.5 -90.5q-214 0 -363 260q0 -235 111.5 -363.5t341.5 -160.5v-37z" />
    <glyph glyph-name="heart" unicode="&#x2665;" horiz-adv-x="1366" 
d="M682 -23q-34 135 -108 263.5t-273 394.5q-111 148 -148.5 228t-37.5 169q0 117 76 197t190 80q215 0 301 -267q37 130 114 199.5t185 69.5q115 0 192.5 -80.5t77.5 -200.5q0 -123 -98 -285q-43 -67 -180 -245q-237 -294 -291 -523z" />
    <glyph glyph-name="diamond" unicode="&#x2666;" horiz-adv-x="1366" 
d="M164 682q112 123 267 342t253 395q99 -177 253 -396t265 -341q-111 -120 -265 -338.5t-253 -396.5q-102 179 -256 397t-264 338z" />
    <glyph glyph-name="musicalnote" unicode="&#x266a;" horiz-adv-x="935" 
d="M379 1366h94v-125l137 -166q187 -224 187 -461q0 -189 -117 -331h-57q67 155 67 297q0 138 -63 244t-154 118v-608q0 -158 -84.5 -255t-222.5 -97q-67 0 -106.5 32.5t-39.5 89.5q0 96 74.5 167t175.5 71q48 0 109 -23v1047z" />
    <glyph glyph-name="musicalnotedbl" unicode="&#x266b;" horiz-adv-x="1529" 
d="M365 1202l841 219l-6 -1013q0 -158 -84.5 -255.5t-222.5 -97.5q-66 0 -105.5 33t-39.5 90q0 96 74 167t175 71q56 0 109 -23l6 553l-653 -184l-6 -469q0 -158 -85 -255t-223 -97q-66 0 -105.5 32.5t-39.5 89.5q0 96 74.5 167t175.5 71q57 0 108 -22zM459 918l653 184v143
l-653 -184v-143z" />
    <glyph glyph-name="germandbls.alt" unicode="&#xe000;" horiz-adv-x="1021" 
d="M999 281q0 -133 -95.5 -214t-231.5 -81q-151 0 -271 94l45 125q100 -84 207 -84q77 0 123.5 42.5t46.5 117.5q0 51 -33 102t-80 95t-94.5 89t-80.5 101t-33 114q0 47 23.5 88.5t57 73.5t66.5 65t56.5 76t23.5 93q0 76 -53.5 120.5t-132.5 44.5q-70 0 -118.5 -28t-73 -80
t-34.5 -110t-10 -134v-991h-170v989q0 83 11 151.5t39 132.5t73.5 107t118 69t168.5 26q152 0 249 -77t97 -210q0 -51 -16.5 -96t-41.5 -75.5t-54.5 -59.5t-54.5 -50.5t-41.5 -47.5t-16.5 -52q0 -30 24.5 -66t61.5 -70.5t79.5 -79t79.5 -89t61.5 -103t24.5 -118.5z" />
    <glyph glyph-name="ampersand.alt" unicode="&#xe001;" horiz-adv-x="1597" 
d="M217 342q0 118 75.5 213t215.5 182q-168 183 -168 328q0 139 101 225t251 86q139 0 233.5 -79t94.5 -207q0 -49 -17.5 -95.5t-43.5 -83t-66 -73.5t-77 -62.5t-83 -54.5l348 -369q39 68 67.5 148.5t37.5 127.5l8 46l154 -37q-2 -8 -5 -23t-16 -60.5t-30 -89.5t-47 -103.5
t-66 -110.5l250 -256h-213l-136 141q-171 -168 -409 -168q-203 0 -331 99.5t-128 275.5zM690 106q175 0 299 127l-385 408q-44 -29 -77.5 -55.5t-67.5 -62t-52 -78t-18 -87.5q0 -110 80.5 -181t220.5 -71zM639 817q54 33 84.5 54t67.5 54.5t54 71t17 82.5q0 73 -48.5 123.5
t-133.5 50.5t-135.5 -53.5t-50.5 -126.5q0 -65 37.5 -124.5t107.5 -131.5z" />
    <glyph glyph-name="Ampersand.sc.alt" unicode="&#xe002;" horiz-adv-x="1236" 
d="M176 246q0 87 58 155.5t155 128.5q-123 130 -123 230q0 105 83 173t196 68q111 0 183.5 -60t72.5 -163q0 -80 -55.5 -140.5t-149.5 -117.5l235 -241q27 46 46.5 101t25.5 86l6 32l142 -33q-3 -17 -10.5 -45.5t-39 -103.5t-73.5 -134l186 -186h-188l-88 88
q-127 -113 -303 -113q-159 0 -259 70.5t-100 204.5zM547 94q113 0 198 78l-270 272q-135 -87 -135 -188q0 -71 53.5 -116.5t153.5 -45.5zM512 604q37 23 56 36.5t43.5 35.5t35 46.5t10.5 53.5q0 50 -32.5 82.5t-87.5 32.5q-57 0 -90 -35t-33 -86q0 -44 24 -80t74 -86z" />
    <glyph glyph-name="periodcentered.alt" unicode="&#xe003;" horiz-adv-x="1101" 
d="M674 459q0 -56 -33 -92.5t-88 -36.5q-56 0 -89.5 36t-33.5 93q0 55 33.5 91t89.5 36q55 0 88 -36t33 -91z" />
    <glyph glyph-name="a.title" unicode="&#xe300;" horiz-adv-x="856" 
d="M836 -16q-44 -11 -86 -11q-65 0 -112 27t-58 84q-73 -56 -136.5 -83.5t-142.5 -27.5q-122 0 -196 76t-74 197q0 51 13 93.5t39 74t56 56t74 42t81.5 29t90.5 20t88.5 12.5t87.5 9v39q0 101 -39.5 148.5t-148.5 47.5q-71 0 -137 -25.5t-154 -74.5v143q177 92 328 92
q190 0 268 -114q51 -64 51 -228v-370q0 -31 1 -48t5.5 -39.5t14 -34t27.5 -20t44 -8.5l37 4zM561 182v297q-45 -4 -77 -9t-79.5 -15t-80.5 -26t-64.5 -39t-48 -58.5t-16.5 -79.5q0 -69 45.5 -110.5t115.5 -41.5q89 0 205 82z" />
    <glyph glyph-name="b.title" unicode="&#xe301;" horiz-adv-x="993" 
d="M948 481q0 -220 -137 -364t-354 -144q-185 0 -367 101v1339h172v-545q38 29 108.5 56.5t151.5 27.5q129 0 227.5 -65.5t148.5 -172t50 -233.5zM774 465q0 145 -81 243.5t-224 98.5q-114 0 -207 -72v-573q115 -56 205 -56q140 0 223.5 106t83.5 253z" />
    <glyph glyph-name="c.title" unicode="&#xe302;" horiz-adv-x="821" 
d="M819 76q-134 -103 -307 -103q-216 0 -341.5 135t-125.5 345q0 135 59 249t166.5 182t241.5 68q73 0 141.5 -18t101.5 -35t58 -35l-61 -119q-102 66 -228 66q-96 0 -167.5 -50.5t-105.5 -127t-34 -166.5q0 -96 36.5 -175t110 -128t171.5 -49q20 0 40.5 2.5t36.5 6.5
t34.5 10.5t30 11.5t27 13.5t22.5 12.5t19.5 12t14.5 9z" />
    <glyph glyph-name="d.title" unicode="&#xe303;" horiz-adv-x="1032" 
d="M1034 94l-22 -108q-47 -13 -88 -13q-146 0 -170 115q-121 -115 -291 -115q-97 0 -177.5 39.5t-131.5 107t-79 154t-28 181.5q0 134 57 247t163.5 181.5t240.5 68.5q124 0 225 -59v520h172v-1167q0 -33 1 -51t5.5 -41.5t14 -35t27.5 -20t44 -8.5q21 0 37 4zM733 199v542
q-81 76 -211 76q-142 0 -222.5 -102.5t-80.5 -249.5q0 -143 82 -245.5t219 -102.5q64 0 111 19.5t102 62.5z" />
    <glyph glyph-name="e.title" unicode="&#xe304;" horiz-adv-x="913" 
d="M815 219l64 -96q-55 -61 -153 -105.5t-222 -44.5q-142 0 -247.5 64.5t-158.5 173.5t-53 246q0 98 30.5 187t86.5 158t141.5 109.5t188.5 40.5q94 0 167.5 -33t114 -79.5t67 -105t35 -100.5t9.5 -75l-68 -84h-602q-2 -153 88.5 -257.5t237.5 -104.5q146 0 274 106z
M727 590q-8 105 -72 169t-168 64t-171 -63t-93 -170h504z" />
    <glyph glyph-name="f.title" unicode="&#xe305;" horiz-adv-x="628" 
d="M709 1427l-23 -127q-35 5 -68 5q-65 0 -111.5 -15t-73.5 -39.5t-42 -65.5t-19.5 -81.5t-4.5 -99.5v-78h249v-127h-247v-799h-168v799h-193v127h193v106q0 188 98 298t289 110q64 0 121 -13z" />
    <glyph glyph-name="g.title" unicode="&#xe306;" horiz-adv-x="917" 
d="M905 807l-205 12q51 -47 73 -99.5t22 -123.5q0 -145 -104.5 -237.5t-250.5 -92.5l-90 6q-76 -20 -76 -61q0 -15 10.5 -26.5t33.5 -20.5t38.5 -13t46.5 -11q9 -2 13 -3l84 -18q161 -35 224 -62q157 -67 157 -211q0 -86 -40 -148.5t-108 -95.5t-144 -48t-163 -15
q-62 0 -118 6.5t-116 25t-103 47.5t-71 78.5t-28 113.5q0 51 17 91.5t50 70t69 50t87 41.5q-86 42 -86 113q0 47 32.5 74t90.5 49q-99 45 -153 125.5t-54 185.5q0 152 110 247t267 95q26 0 54.5 -3t45 -6.5t42.5 -9.5t32 -7l317 12zM637 600q0 103 -56.5 173.5t-160.5 70.5
q-97 0 -154 -60t-57 -155q0 -106 59.5 -177t163.5 -71q96 0 150.5 61.5t54.5 157.5zM715 -174q0 38 -17.5 64.5t-52 42.5t-69 25.5t-84.5 19.5q-21 4 -31 6l-148 30q-5 -3 -30 -16.5t-31 -17t-26 -16t-26 -19.5t-19 -21t-17.5 -26t-9 -28.5t-4.5 -35.5q0 -176 286 -176
q279 0 279 168z" />
    <glyph glyph-name="h.title" unicode="&#xe307;" horiz-adv-x="974" 
d="M889 0h-170v557q0 252 -205 252q-78 0 -137 -34.5t-115 -100.5v-674h-170v1413h170v-604q130 143 309 143q185 0 269 -139q49 -84 49 -195v-618z" />
    <glyph glyph-name="i.title" unicode="&#xe308;" horiz-adv-x="354" 
d="M287 1235q0 -46 -29 -76.5t-76 -30.5t-77.5 30t-30.5 77t30.5 76.5t77.5 29.5q46 0 75.5 -30t29.5 -76zM264 0h-172v926h172v-926z" />
    <glyph glyph-name="j.title" unicode="&#xe309;" horiz-adv-x="352" 
d="M283 1239q0 -46 -29 -76t-76 -30t-76.5 29.5t-29.5 76.5t29.5 77t76.5 30q46 0 75.5 -30.5t29.5 -76.5zM260 922v-938q0 -92 -7.5 -156t-29 -122t-59.5 -92.5t-100 -54.5t-150 -20q-24 0 -51 2t-43 4l-15 2l19 129q45 -8 82 -8t65.5 8t47.5 20t32.5 35.5t20.5 44.5
t10.5 57.5t4.5 64.5t1 75v949h172z" />
    <glyph glyph-name="k.title" unicode="&#xe30a;" horiz-adv-x="890" 
d="M915 0h-204l-344 436l-105 -108v-328h-172v1413h172v-901l434 430l172 -35l-379 -375z" />
    <glyph glyph-name="l.title" unicode="&#xe30b;" horiz-adv-x="350" 
d="M262 0h-172v1413h172v-1413z" />
    <glyph glyph-name="m.title" unicode="&#xe30c;" horiz-adv-x="1558" 
d="M1473 0h-170v582q0 109 -43.5 169t-147.5 60q-78 0 -135 -36t-107 -105q2 -10 2 -84v-586h-172v588q0 221 -186 221q-137 0 -244 -139v-670h-170v590v33.5v37t-0.5 35t-2.5 38t-4.5 35.5t-7.5 37t-11 32.5t-15 33.5t-20 29l147 53q62 -47 74 -155q130 153 305 153
q201 0 277 -164q70 81 147.5 122.5t177.5 41.5q78 0 149.5 -32.5t110.5 -94.5q46 -74 46 -211v-614z" />
    <glyph glyph-name="n.title" unicode="&#xe30d;" horiz-adv-x="980" 
d="M897 0h-172v559q0 250 -203 250q-78 0 -136 -34t-116 -101v-674h-172v651q0 84 -11 144t-48 106l147 53q64 -46 72 -157q72 77 148 116t172 39q179 0 264 -129q55 -86 55 -202v-621z" />
    <glyph glyph-name="o.title" unicode="&#xe30e;" horiz-adv-x="1042" 
d="M997 463q0 -211 -130 -350.5t-343 -139.5t-345 136.5t-132 351.5q0 214 133 352.5t350 138.5q213 0 340 -139t127 -350zM823 457q0 71 -19 135.5t-56 116t-97.5 82t-136.5 30.5q-135 0 -214 -99t-79 -239q0 -101 35.5 -185.5t108.5 -139t172 -54.5q136 0 211 100.5
t75 252.5z" />
    <glyph glyph-name="p.title" unicode="&#xe30f;" horiz-adv-x="1001" 
d="M956 481q0 -102 -33 -193t-91.5 -159.5t-146 -108.5t-191.5 -40q-66 0 -114.5 10t-111.5 35v-465h-172v1079q0 52 -1 72.5t-5.5 63.5t-19 73t-37.5 55l147 53q55 -32 68 -100q132 96 287 96q129 0 226 -65.5t146 -171.5t49 -234zM780 469q0 89 -33 166t-102 127.5
t-162 50.5q-104 0 -215 -70v-571q94 -61 207 -61q144 0 224.5 103.5t80.5 254.5z" />
    <glyph glyph-name="q.title" unicode="&#xe310;" horiz-adv-x="995" 
d="M903 -440h-170v510q-117 -86 -256 -86q-196 0 -314 133.5t-118 335.5q0 217 137 359t353 142q159 0 368 -80v-1314zM733 203v565q-105 51 -203 51q-143 0 -227 -100t-84 -244q0 -93 33.5 -171.5t103.5 -128.5t164 -50q63 0 109.5 18.5t103.5 59.5z" />
    <glyph glyph-name="r.title" unicode="&#xe311;" horiz-adv-x="665" 
d="M672 913l-39 -149q-71 31 -123 31q-39 0 -74 -15.5t-67 -47t-51.5 -55t-47.5 -63.5v-614h-172v651q0 84 -11 144t-48 106l147 53q74 -55 74 -204q26 42 50 72.5t57 62.5t73 49.5t84 17.5q68 0 148 -39z" />
    <glyph glyph-name="s.title" unicode="&#xe312;" horiz-adv-x="692" 
d="M659 256q0 -90 -49.5 -156t-124.5 -96.5t-163 -30.5q-192 0 -322 121l70 119q114 -109 247 -109q75 0 119.5 36t44.5 104q0 41 -23 71.5t-60 51t-81.5 39.5t-89 42t-81.5 52t-60 76t-23 108q0 123 89 195.5t219 72.5q135 0 264 -82l-51 -127q-57 39 -104.5 58.5
t-102.5 19.5q-68 0 -106 -33.5t-38 -89.5q0 -39 23.5 -68.5t61 -49.5t83 -39t91 -42.5t83 -53t61 -78t23.5 -111.5z" />
    <glyph glyph-name="t.title" unicode="&#xe313;" horiz-adv-x="671" 
d="M694 37q-114 -57 -245 -57q-130 0 -192 67.5t-62 202.5v549h-193v106l53 4q113 9 152.5 46.5t58.5 146.5l8 94h88v-270h261v-127h-261v-486q0 -41 2 -66t10 -53t22.5 -42.5t41.5 -24.5t66 -10t90 13t76 24z" />
    <glyph glyph-name="u.title" unicode="&#xe314;" horiz-adv-x="997" 
d="M1001 94l-22 -108q-43 -13 -88 -13q-155 0 -174 136q-68 -65 -137.5 -100.5t-159.5 -35.5q-330 0 -330 340v613h170v-578q0 -231 201 -231q74 0 125 27t114 87v695h172v-684q0 -32 1 -50t6 -40.5t14.5 -34t27.5 -19.5t44 -8z" />
    <glyph glyph-name="v.title" unicode="&#xe315;" horiz-adv-x="886" 
d="M885 909l-369 -909h-149l-367 909l170 33l279 -717l278 717z" />
    <glyph glyph-name="w.title" unicode="&#xe316;" horiz-adv-x="1398" 
d="M1399 909l-367 -909h-145l-193 494l-184 -494h-145l-363 909l164 33l293 -747l172 456l-103 258l156 33l277 -729l284 729z" />
    <glyph glyph-name="x.title" unicode="&#xe317;" horiz-adv-x="884" 
d="M887 20l-176 -32l-269 372l-272 -374l-166 30l348 459l-327 434l174 33l252 -350l254 350l163 -33l-327 -430z" />
    <glyph glyph-name="y.title" unicode="&#xe318;" horiz-adv-x="882" 
d="M881 905l-424 -1032q-30 -73 -61.5 -127t-76.5 -105t-106 -77.5t-135 -26.5q-62 0 -129 19l26 127q45 -15 95 -15q41 0 75 14.5t57 35t46 57.5t36 66.5t33 78.5l39 98l-352 887l168 33l270 -715l279 715z" />
    <glyph glyph-name="z.title" unicode="&#xe319;" horiz-adv-x="815" 
d="M809 129l-27 -129h-751l-21 70l533 729h-484v127h691l22 -68l-530 -729h567z" />
    <glyph glyph-name="aacute.title" unicode="&#xe31a;" horiz-adv-x="856" 
d="M836 -16q-44 -11 -86 -11q-65 0 -112 27t-58 84q-73 -56 -136.5 -83.5t-142.5 -27.5q-122 0 -196 76t-74 197q0 51 13 93.5t39 74t56 56t74 42t81.5 29t90.5 20t88.5 12.5t87.5 9v39q0 101 -39.5 148.5t-148.5 47.5q-71 0 -137 -25.5t-154 -74.5v143q177 92 328 92
q190 0 268 -114q51 -64 51 -228v-370q0 -31 1 -48t5.5 -39.5t14 -34t27.5 -20t44 -8.5l37 4zM561 182v297q-45 -4 -77 -9t-79.5 -15t-80.5 -26t-64.5 -39t-48 -58.5t-16.5 -79.5q0 -69 45.5 -110.5t115.5 -41.5q89 0 205 82zM707 1337l-301 -270l-107 45l256 272z" />
    <glyph glyph-name="abreve.title" unicode="&#xe31b;" horiz-adv-x="856" 
d="M836 -16q-44 -11 -86 -11q-65 0 -112 27t-58 84q-73 -56 -136.5 -83.5t-142.5 -27.5q-122 0 -196 76t-74 197q0 51 13 93.5t39 74t56 56t74 42t81.5 29t90.5 20t88.5 12.5t87.5 9v39q0 101 -39.5 148.5t-148.5 47.5q-71 0 -137 -25.5t-154 -74.5v143q177 92 328 92
q190 0 268 -114q51 -64 51 -228v-370q0 -31 1 -48t5.5 -39.5t14 -34t27.5 -20t44 -8.5l37 4zM561 182v297q-45 -4 -77 -9t-79.5 -15t-80.5 -26t-64.5 -39t-48 -58.5t-16.5 -79.5q0 -69 45.5 -110.5t115.5 -41.5q89 0 205 82zM686 1372q-11 -142 -81 -221.5t-206 -79.5
q-127 0 -196 77.5t-78 221.5l111 14q15 -94 53 -145t112 -51q82 0 120 48.5t57 147.5z" />
    <glyph glyph-name="acircumflex.title" unicode="&#xe31c;" horiz-adv-x="856" 
d="M836 -16q-44 -11 -86 -11q-65 0 -112 27t-58 84q-73 -56 -136.5 -83.5t-142.5 -27.5q-122 0 -196 76t-74 197q0 51 13 93.5t39 74t56 56t74 42t81.5 29t90.5 20t88.5 12.5t87.5 9v39q0 101 -39.5 148.5t-148.5 47.5q-71 0 -137 -25.5t-154 -74.5v143q177 92 328 92
q190 0 268 -114q51 -64 51 -228v-370q0 -31 1 -48t5.5 -39.5t14 -34t27.5 -20t44 -8.5l37 4zM561 182v297q-45 -4 -77 -9t-79.5 -15t-80.5 -26t-64.5 -39t-48 -58.5t-16.5 -79.5q0 -69 45.5 -110.5t115.5 -41.5q89 0 205 82zM467 1389l244 -299l-129 -23l-176 217l-177 -217
l-123 23l248 299h113z" />
    <glyph glyph-name="adieresis.title" unicode="&#xe31d;" horiz-adv-x="856" 
d="M836 -16q-44 -11 -86 -11q-65 0 -112 27t-58 84q-73 -56 -136.5 -83.5t-142.5 -27.5q-122 0 -196 76t-74 197q0 51 13 93.5t39 74t56 56t74 42t81.5 29t90.5 20t88.5 12.5t87.5 9v39q0 101 -39.5 148.5t-148.5 47.5q-71 0 -137 -25.5t-154 -74.5v143q177 92 328 92
q190 0 268 -114q51 -64 51 -228v-370q0 -31 1 -48t5.5 -39.5t14 -34t27.5 -20t44 -8.5l37 4zM561 182v297q-45 -4 -77 -9t-79.5 -15t-80.5 -26t-64.5 -39t-48 -58.5t-16.5 -79.5q0 -69 45.5 -110.5t115.5 -41.5q89 0 205 82zM354 1231q0 -46 -29.5 -76.5t-76.5 -30.5t-78 30
t-31 77t30.5 76.5t78.5 29.5q46 0 76 -30t30 -76zM694 1231q0 -46 -30 -76.5t-76 -30.5q-47 0 -78 30t-31 77t30.5 76.5t78.5 29.5q46 0 76 -30t30 -76z" />
    <glyph glyph-name="ae.title" unicode="&#xe31e;" horiz-adv-x="1439" 
d="M1409 127q-142 -154 -367 -154q-114 0 -198.5 37.5t-155.5 122.5q-88 -84 -171 -122t-198 -38q-125 0 -206.5 73t-81.5 196q0 59 20 107.5t49.5 81t78.5 58.5t92 40.5t106 25.5t104.5 15.5t102.5 9.5q2 10 2 45q0 96 -49.5 146t-143.5 50q-126 0 -287 -86v131
q159 86 316 86q222 0 274 -164q128 164 332 164q174 0 274.5 -109.5t106.5 -285.5l-59 -80h-602q-6 -157 83 -260.5t244 -103.5q79 0 142.5 26t128.5 80zM1257 590q-9 105 -72.5 169t-168.5 64q-104 0 -171 -63.5t-91 -169.5h503zM631 219q-54 118 -51 258
q-162 -17 -235 -44q-147 -55 -148 -179q0 -72 50 -115t122 -43q78 0 138.5 31t123.5 92z" />
    <glyph glyph-name="agrave.title" unicode="&#xe31f;" horiz-adv-x="856" 
d="M836 -16q-44 -11 -86 -11q-65 0 -112 27t-58 84q-73 -56 -136.5 -83.5t-142.5 -27.5q-122 0 -196 76t-74 197q0 51 13 93.5t39 74t56 56t74 42t81.5 29t90.5 20t88.5 12.5t87.5 9v39q0 101 -39.5 148.5t-148.5 47.5q-71 0 -137 -25.5t-154 -74.5v143q177 92 328 92
q190 0 268 -114q51 -64 51 -228v-370q0 -31 1 -48t5.5 -39.5t14 -34t27.5 -20t44 -8.5l37 4zM561 182v297q-45 -4 -77 -9t-79.5 -15t-80.5 -26t-64.5 -39t-48 -58.5t-16.5 -79.5q0 -69 45.5 -110.5t115.5 -41.5q89 0 205 82zM436 1067l-303 270l152 47l256 -272z" />
    <glyph glyph-name="amacron.title" unicode="&#xe320;" horiz-adv-x="856" 
d="M836 -16q-44 -11 -86 -11q-65 0 -112 27t-58 84q-73 -56 -136.5 -83.5t-142.5 -27.5q-122 0 -196 76t-74 197q0 51 13 93.5t39 74t56 56t74 42t81.5 29t90.5 20t88.5 12.5t87.5 9v39q0 101 -39.5 148.5t-148.5 47.5q-71 0 -137 -25.5t-154 -74.5v143q177 92 328 92
q190 0 268 -114q51 -64 51 -228v-370q0 -31 1 -48t5.5 -39.5t14 -34t27.5 -20t44 -8.5l37 4zM561 182v297q-45 -4 -77 -9t-79.5 -15t-80.5 -26t-64.5 -39t-48 -58.5t-16.5 -79.5q0 -69 45.5 -110.5t115.5 -41.5q89 0 205 82zM670 1171h-527v113h527v-113z" />
    <glyph glyph-name="aogonek.title" unicode="&#xe321;" horiz-adv-x="856" 
d="M836 -16h-2q-11 -6 -31 -21.5t-52.5 -45t-55.5 -67.5t-23 -73q0 -36 25 -54t57 -18q25 0 48 4.5t34 9.5l10 5l20 -82q-61 -35 -157 -35q-75 0 -128 32.5t-53 100.5q0 43 21.5 83.5t56 71t60 48t51.5 32.5q-118 11 -137 109q-73 -56 -136.5 -83.5t-142.5 -27.5
q-122 0 -196 76t-74 197q0 51 13 93.5t39 74t56 56t74 42t81.5 29t90.5 20t88.5 12.5t87.5 9v39q0 101 -39.5 148.5t-148.5 47.5q-71 0 -137 -25.5t-154 -74.5v143q177 92 328 92q190 0 268 -114q51 -64 51 -228v-370q0 -31 1 -48t5.5 -39.5t14 -34t27.5 -20t44 -8.5l37 4z
M561 182v297q-45 -4 -77 -9t-79.5 -15t-80.5 -26t-64.5 -39t-48 -58.5t-16.5 -79.5q0 -69 45.5 -110.5t115.5 -41.5q89 0 205 82z" />
    <glyph glyph-name="aring.title" unicode="&#xe322;" horiz-adv-x="856" 
d="M836 -16q-44 -11 -86 -11q-65 0 -112 27t-58 84q-73 -56 -136.5 -83.5t-142.5 -27.5q-122 0 -196 76t-74 197q0 51 13 93.5t39 74t56 56t74 42t81.5 29t90.5 20t88.5 12.5t87.5 9v39q0 101 -39.5 148.5t-148.5 47.5q-71 0 -137 -25.5t-154 -74.5v143q177 92 328 92
q190 0 268 -114q51 -64 51 -228v-370q0 -31 1 -48t5.5 -39.5t14 -34t27.5 -20t44 -8.5l37 4zM561 182v297q-45 -4 -77 -9t-79.5 -15t-80.5 -26t-64.5 -39t-48 -58.5t-16.5 -79.5q0 -69 45.5 -110.5t115.5 -41.5q89 0 205 82zM209 1237q0 82 59 135t140 53q82 0 142 -53
t60 -135t-60 -135t-142 -53q-84 0 -141.5 52t-57.5 136zM297 1237q0 -49 32.5 -81t78.5 -32q49 0 80.5 29.5t31.5 83.5q0 50 -32 81.5t-80 31.5q-49 0 -80 -30t-31 -83z" />
    <glyph glyph-name="atilde.title" unicode="&#xe323;" horiz-adv-x="856" 
d="M836 -16q-44 -11 -86 -11q-65 0 -112 27t-58 84q-73 -56 -136.5 -83.5t-142.5 -27.5q-122 0 -196 76t-74 197q0 51 13 93.5t39 74t56 56t74 42t81.5 29t90.5 20t88.5 12.5t87.5 9v39q0 101 -39.5 148.5t-148.5 47.5q-71 0 -137 -25.5t-154 -74.5v143q177 92 328 92
q190 0 268 -114q51 -64 51 -228v-370q0 -31 1 -48t5.5 -39.5t14 -34t27.5 -20t44 -8.5l37 4zM561 182v297q-45 -4 -77 -9t-79.5 -15t-80.5 -26t-64.5 -39t-48 -58.5t-16.5 -79.5q0 -69 45.5 -110.5t115.5 -41.5q89 0 205 82zM655 1327l86 -37q-59 -182 -198 -182
q-36 0 -74 16t-65.5 36t-62 36t-62.5 16q-70 0 -109 -106l-82 37q30 88 75.5 136t125.5 48q53 0 136 -51t128 -51q69 0 102 102z" />
    <glyph glyph-name="cacute.title" unicode="&#xe324;" horiz-adv-x="821" 
d="M819 76q-134 -103 -307 -103q-216 0 -341.5 135t-125.5 345q0 135 59 249t166.5 182t241.5 68q73 0 141.5 -18t101.5 -35t58 -35l-61 -119q-102 66 -228 66q-96 0 -167.5 -50.5t-105.5 -127t-34 -166.5q0 -96 36.5 -175t110 -128t171.5 -49q20 0 40.5 2.5t36.5 6.5
t34.5 10.5t30 11.5t27 13.5t22.5 12.5t19.5 12t14.5 9zM772 1337l-301 -270l-106 45l256 272z" />
    <glyph glyph-name="ccaron.title" unicode="&#xe325;" horiz-adv-x="821" 
d="M819 76q-134 -103 -307 -103q-216 0 -341.5 135t-125.5 345q0 135 59 249t166.5 182t241.5 68q73 0 141.5 -18t101.5 -35t58 -35l-61 -119q-102 66 -228 66q-96 0 -167.5 -50.5t-105.5 -127t-34 -166.5q0 -96 36.5 -175t110 -128t171.5 -49q20 0 40.5 2.5t36.5 6.5
t34.5 10.5t30 11.5t27 13.5t22.5 12.5t19.5 12t14.5 9zM795 1366l-242 -299h-115l-248 299l134 23l176 -215l176 215z" />
    <glyph glyph-name="ccedilla.title" unicode="&#xe326;" horiz-adv-x="821" 
d="M643 -250q0 -80 -62.5 -125t-152.5 -45q-39 0 -73.5 4t-48.5 8l-15 5l18 90q50 -19 101 -19q49 0 74.5 23t25.5 57q0 31 -28.5 48.5t-71.5 17.5l-52 -4l60 172q-175 27 -274 155.5t-99 315.5q0 135 59 249t166.5 182t241.5 68q73 0 141.5 -18t101.5 -35t58 -35l-61 -119
q-102 66 -228 66q-96 0 -167.5 -50.5t-105.5 -127t-34 -166.5q0 -96 36.5 -175t110 -128t171.5 -49q20 0 40.5 2.5t36.5 6.5t34.5 10.5t30 11.5t27 13.5t22.5 12.5t19.5 12t14.5 9l59 -117q-134 -103 -307 -103h-4l-33 -100q13 2 27 2q66 0 103.5 -34t37.5 -91z" />
    <glyph glyph-name="dcaron.title" unicode="&#xe327;" horiz-adv-x="1214" 
d="M1186 1413q-3 -114 -32.5 -221t-70.5 -178l-108 35q63 146 69 364h142zM1034 94l-22 -108q-47 -13 -88 -13q-146 0 -170 115q-121 -115 -291 -115q-97 0 -177.5 39.5t-131.5 107t-79 154t-28 181.5q0 134 57 247t163.5 181.5t240.5 68.5q124 0 225 -59v520h172v-1167
q0 -33 1 -51t5.5 -41.5t14 -35t27.5 -20t44 -8.5q21 0 37 4zM733 199v542q-81 76 -211 76q-142 0 -222.5 -102.5t-80.5 -249.5q0 -143 82 -245.5t219 -102.5q64 0 111 19.5t102 62.5z" />
    <glyph glyph-name="dcroat.title" unicode="&#xe328;" horiz-adv-x="1032" 
d="M1034 94l-22 -108q-47 -13 -88 -13q-146 0 -170 115q-121 -115 -291 -115q-97 0 -177.5 39.5t-131.5 107t-79 154t-28 181.5q0 134 57 247t163.5 181.5t240.5 68.5q124 0 225 -59v229h-438v117h438v174h172v-174h166v-117h-166v-876q0 -33 1 -51t5.5 -41.5t14 -35
t27.5 -20t44 -8.5q21 0 37 4zM733 199v542q-81 76 -211 76q-142 0 -222.5 -102.5t-80.5 -249.5q0 -143 82 -245.5t219 -102.5q64 0 111 19.5t102 62.5z" />
    <glyph glyph-name="eacute.title" unicode="&#xe329;" horiz-adv-x="913" 
d="M782 1337l-301 -270l-106 45l256 272zM815 219l64 -96q-55 -61 -153 -105.5t-222 -44.5q-142 0 -247.5 64.5t-158.5 173.5t-53 246q0 98 30.5 187t86.5 158t141.5 109.5t188.5 40.5q94 0 167.5 -33t114 -79.5t67 -105t35 -100.5t9.5 -75l-68 -84h-602
q-2 -153 88.5 -257.5t237.5 -104.5q146 0 274 106zM727 590q-8 105 -72 169t-168 64t-171 -63t-93 -170h504z" />
    <glyph glyph-name="ecaron.title" unicode="&#xe32a;" horiz-adv-x="913" 
d="M778 1366l-241 -299h-115l-248 299l133 23l176 -215l176 215zM815 219l64 -96q-55 -61 -153 -105.5t-222 -44.5q-142 0 -247.5 64.5t-158.5 173.5t-53 246q0 98 30.5 187t86.5 158t141.5 109.5t188.5 40.5q94 0 167.5 -33t114 -79.5t67 -105t35 -100.5t9.5 -75l-68 -84
h-602q-2 -153 88.5 -257.5t237.5 -104.5q146 0 274 106zM727 590q-8 105 -72 169t-168 64t-171 -63t-93 -170h504z" />
    <glyph glyph-name="ecircumflex.title" unicode="&#xe32b;" horiz-adv-x="913" 
d="M555 1389l244 -299l-129 -23l-176 217l-177 -217l-122 23l247 299h113zM815 219l64 -96q-55 -61 -153 -105.5t-222 -44.5q-142 0 -247.5 64.5t-158.5 173.5t-53 246q0 98 30.5 187t86.5 158t141.5 109.5t188.5 40.5q94 0 167.5 -33t114 -79.5t67 -105t35 -100.5t9.5 -75
l-68 -84h-602q-2 -153 88.5 -257.5t237.5 -104.5q146 0 274 106zM727 590q-8 105 -72 169t-168 64t-171 -63t-93 -170h504z" />
    <glyph glyph-name="edieresis.title" unicode="&#xe32c;" horiz-adv-x="913" 
d="M438 1231q0 -46 -29.5 -76.5t-76.5 -30.5t-78 30t-31 77t30.5 76.5t78.5 29.5q46 0 76 -30t30 -76zM778 1231q0 -46 -30 -76.5t-76 -30.5q-47 0 -78 30t-31 77t30.5 76.5t78.5 29.5q46 0 76 -30t30 -76zM815 219l64 -96q-55 -61 -153 -105.5t-222 -44.5
q-142 0 -247.5 64.5t-158.5 173.5t-53 246q0 98 30.5 187t86.5 158t141.5 109.5t188.5 40.5q94 0 167.5 -33t114 -79.5t67 -105t35 -100.5t9.5 -75l-68 -84h-602q-2 -153 88.5 -257.5t237.5 -104.5q146 0 274 106zM727 590q-8 105 -72 169t-168 64t-171 -63t-93 -170h504z
" />
    <glyph glyph-name="edotaccent.title" unicode="&#xe32d;" horiz-adv-x="913" 
d="M596 1239q0 -46 -29 -76t-75 -30q-49 0 -79 29.5t-30 76.5t29.5 77t76.5 30q46 0 76.5 -30.5t30.5 -76.5zM815 219l64 -96q-55 -61 -153 -105.5t-222 -44.5q-142 0 -247.5 64.5t-158.5 173.5t-53 246q0 98 30.5 187t86.5 158t141.5 109.5t188.5 40.5q94 0 167.5 -33
t114 -79.5t67 -105t35 -100.5t9.5 -75l-68 -84h-602q-2 -153 88.5 -257.5t237.5 -104.5q146 0 274 106zM727 590q-8 105 -72 169t-168 64t-171 -63t-93 -170h504z" />
    <glyph glyph-name="egrave.title" unicode="&#xe32e;" horiz-adv-x="913" 
d="M508 1067l-303 270l151 47l256 -272zM815 219l64 -96q-55 -61 -153 -105.5t-222 -44.5q-142 0 -247.5 64.5t-158.5 173.5t-53 246q0 98 30.5 187t86.5 158t141.5 109.5t188.5 40.5q94 0 167.5 -33t114 -79.5t67 -105t35 -100.5t9.5 -75l-68 -84h-602q-2 -153 88.5 -257.5
t237.5 -104.5q146 0 274 106zM727 590q-8 105 -72 169t-168 64t-171 -63t-93 -170h504z" />
    <glyph glyph-name="emacron.title" unicode="&#xe32f;" horiz-adv-x="913" 
d="M815 219l64 -96q-55 -61 -153 -105.5t-222 -44.5q-142 0 -247.5 64.5t-158.5 173.5t-53 246q0 98 30.5 187t86.5 158t141.5 109.5t188.5 40.5q94 0 167.5 -33t114 -79.5t67 -105t35 -100.5t9.5 -75l-68 -84h-602q-2 -153 88.5 -257.5t237.5 -104.5q146 0 274 106z
M727 590q-8 105 -72 169t-168 64t-171 -63t-93 -170h504zM756 1171h-527v113h527v-113z" />
    <glyph glyph-name="eogonek.title" unicode="&#xe330;" horiz-adv-x="913" 
d="M815 219l64 -96q-80 -88 -213 -125q-16 -10 -36.5 -26.5t-51 -45t-50.5 -64.5t-20 -69q0 -36 25 -54t57 -18q25 0 48 4.5t34 9.5l10 5l20 -82q-61 -35 -157 -35q-75 0 -127.5 32.5t-52.5 100.5t48 124t109 93h-18q-142 0 -247.5 64.5t-158.5 173.5t-53 246q0 98 30.5 187
t86.5 158t141.5 109.5t188.5 40.5q94 0 167.5 -33t114 -79.5t67 -105t35 -100.5t9.5 -75l-68 -84h-602q-2 -153 88.5 -257.5t237.5 -104.5q146 0 274 106zM727 590q-8 105 -72 169t-168 64t-171 -63t-93 -170h504z" />
    <glyph glyph-name="eth.title" unicode="&#xe331;" horiz-adv-x="1046" 
d="M262 1044l-61 99l209 110q-98 56 -234 97l66 125q174 -44 321 -138l240 129l59 -96l-198 -108q164 -139 248.5 -340t84.5 -439q0 -229 -128 -369.5t-351 -140.5q-216 0 -343.5 135.5t-127.5 348.5q0 204 127.5 343.5t325.5 139.5q75 0 133 -16.5t79 -33.5l21 -16
q-63 185 -217 308zM823 442q0 158 -80 261.5t-227 103.5q-137 0 -217 -93.5t-80 -234.5q0 -157 87 -265t231 -108q72 0 129 29.5t90 79t50 107.5t17 120z" />
    <glyph glyph-name="gbreve.title" unicode="&#xe332;" horiz-adv-x="917" 
d="M905 807l-205 12q51 -47 73 -99.5t22 -123.5q0 -145 -104.5 -237.5t-250.5 -92.5l-90 6q-76 -20 -76 -61q0 -15 10.5 -26.5t33.5 -20.5t38.5 -13t46.5 -11q9 -2 13 -3l84 -18q161 -35 224 -62q157 -67 157 -211q0 -86 -40 -148.5t-108 -95.5t-144 -48t-163 -15
q-62 0 -118 6.5t-116 25t-103 47.5t-71 78.5t-28 113.5q0 51 17 91.5t50 70t69 50t87 41.5q-86 42 -86 113q0 47 32.5 74t90.5 49q-99 45 -153 125.5t-54 185.5q0 152 110 247t267 95q26 0 54.5 -3t45 -6.5t42.5 -9.5t32 -7l317 12zM637 600q0 103 -56.5 173.5t-160.5 70.5
q-97 0 -154 -60t-57 -155q0 -106 59.5 -177t163.5 -71q96 0 150.5 61.5t54.5 157.5zM715 -174q0 38 -17.5 64.5t-52 42.5t-69 25.5t-84.5 19.5q-21 4 -31 6l-148 30q-5 -3 -30 -16.5t-31 -17t-26 -16t-26 -19.5t-19 -21t-17.5 -26t-9 -28.5t-4.5 -35.5q0 -176 286 -176
q279 0 279 168zM737 1372q-11 -142 -81 -221.5t-205 -79.5q-127 0 -196.5 78t-78.5 221l111 14q15 -93 53.5 -144.5t112.5 -51.5q82 0 119.5 48.5t56.5 147.5z" />
    <glyph glyph-name="gcommaaccent.title" unicode="&#xe333;" horiz-adv-x="917" 
d="M905 807l-205 12q51 -47 73 -99.5t22 -123.5q0 -145 -104.5 -237.5t-250.5 -92.5l-90 6q-76 -20 -76 -61q0 -15 10.5 -26.5t33.5 -20.5t38.5 -13t46.5 -11q9 -2 13 -3l84 -18q161 -35 224 -62q157 -67 157 -211q0 -86 -40 -148.5t-108 -95.5t-144 -48t-163 -15
q-62 0 -118 6.5t-116 25t-103 47.5t-71 78.5t-28 113.5q0 51 17 91.5t50 70t69 50t87 41.5q-86 42 -86 113q0 47 32.5 74t90.5 49q-99 45 -153 125.5t-54 185.5q0 152 110 247t267 95q26 0 54.5 -3t45 -6.5t42.5 -9.5t32 -7l317 12zM637 600q0 103 -56.5 173.5t-160.5 70.5
q-97 0 -154 -60t-57 -155q0 -106 59.5 -177t163.5 -71q96 0 150.5 61.5t54.5 157.5zM715 -174q0 38 -17.5 64.5t-52 42.5t-69 25.5t-84.5 19.5q-21 4 -31 6l-148 30q-5 -3 -30 -16.5t-31 -17t-26 -16t-26 -19.5t-19 -21t-17.5 -26t-9 -28.5t-4.5 -35.5q0 -176 286 -176
q279 0 279 168zM358 1083v27q0 102 28.5 201t70.5 174l116 -37q-61 -141 -61 -340v-25h-154z" />
    <glyph glyph-name="germandbls.title" unicode="&#xe334;" horiz-adv-x="950" 
d="M928 272q0 -133 -91.5 -209.5t-226.5 -76.5q-154 0 -272 92l47 121q91 -82 207 -82q79 0 124.5 34.5t45.5 108.5q0 50 -35 97.5t-85 87t-100 80.5t-85 95.5t-35 116.5q0 40 18 75.5t45 61t59 56t59 58.5t45 70t18 89q0 79 -48.5 123.5t-140.5 44.5q-54 0 -93.5 -19
t-62.5 -49t-36.5 -76t-18 -91t-4.5 -103v-977h-172v999q0 441 393 441q158 0 256.5 -71.5t98.5 -203.5q0 -64 -26 -117t-62.5 -87.5t-73 -64.5t-62.5 -62t-26 -66q0 -41 35 -81.5t85 -79.5t100 -83.5t85 -109.5t35 -142z" />
    <glyph glyph-name="iacute.title" unicode="&#xe335;" horiz-adv-x="354" 
d="M453 1337l-301 -270l-107 45l256 272zM262 0h-170v926h170v-926z" />
    <glyph glyph-name="icircumflex.title" unicode="&#xe336;" horiz-adv-x="354" 
d="M236 1389l223 -299l-129 -23l-156 217l-156 -217l-122 23l227 299h113zM262 0h-170v926h170v-926z" />
    <glyph glyph-name="dotlessi.title" unicode="&#xe337;" horiz-adv-x="354" 
d="M262 0h-170v926h170v-926z" />
    <glyph glyph-name="idieresis.title" unicode="&#xe338;" horiz-adv-x="354" 
d="M137 1231q0 -46 -29.5 -76.5t-76.5 -30.5t-78 30t-31 77t30.5 76.5t78.5 29.5q46 0 76 -30t30 -76zM436 1231q0 -46 -30 -76.5t-76 -30.5q-47 0 -78 30t-31 77t30.5 76.5t78.5 29.5q46 0 76 -30t30 -76zM262 0h-170v926h170v-926z" />
    <glyph glyph-name="igrave.title" unicode="&#xe339;" horiz-adv-x="354" 
d="M227 1067l-303 270l152 47l256 -272zM262 0h-170v926h170v-926z" />
    <glyph glyph-name="imacron.title" unicode="&#xe33a;" horiz-adv-x="354" 
d="M262 0h-170v926h170v-926zM381 1171h-404v113h404v-113z" />
    <glyph glyph-name="iogonek.title" unicode="&#xe33b;" horiz-adv-x="354" 
d="M162 0h-70v926h170v-926q-5 -4 -12.5 -11.5t-26.5 -31t-34 -47t-27 -56t-12 -61.5q0 -36 24.5 -54t56.5 -18q25 0 48.5 4.5t34.5 9.5l10 5l20 -82q-62 -35 -158 -35q-75 0 -127.5 32.5t-52.5 100.5q0 36 16 74.5t39 67.5t46 53t39 37z" />
    <glyph glyph-name="kcommaaccent.title" unicode="&#xe33c;" horiz-adv-x="890" 
d="M565 -113q-1 -99 -31.5 -201.5t-74.5 -179.5l-109 33q71 160 74 348h141zM915 0h-204l-344 436l-105 -108v-328h-172v1413h172v-901l434 430l172 -35l-379 -375z" />
    <glyph glyph-name="lacute.title" unicode="&#xe33d;" horiz-adv-x="350" 
d="M492 1747l-302 -270l-106 45l256 272zM262 0h-172v1413h172v-1413z" />
    <glyph glyph-name="lcaron.title" unicode="&#xe33e;" horiz-adv-x="571" 
d="M545 1413q-3 -114 -32.5 -221t-70.5 -178l-108 35q63 146 69 364h142zM262 0h-172v1413h172v-1413z" />
    <glyph glyph-name="lcommaaccent.title" unicode="&#xe33f;" horiz-adv-x="350" 
d="M248 -113q-1 -99 -31.5 -201t-75.5 -180l-108 33q70 158 73 348h142zM262 0h-172v1413h172v-1413z" />
    <glyph glyph-name="lslash.title" unicode="&#xe340;" horiz-adv-x="350" 
d="M262 0h-172v629l-113 -76v162l113 73v625h172v-539l113 78v-159l-113 -78v-715z" />
    <glyph glyph-name="nacute.title" unicode="&#xe341;" horiz-adv-x="980" 
d="M897 0h-172v559q0 250 -203 250q-78 0 -136 -34t-116 -101v-674h-172v651q0 84 -11 144t-48 106l147 53q64 -46 72 -157q72 77 148 116t172 39q179 0 264 -129q55 -86 55 -202v-621zM752 1337l-301 -270l-107 45l256 272z" />
    <glyph glyph-name="ncaron.title" unicode="&#xe342;" horiz-adv-x="980" 
d="M897 0h-172v559q0 250 -203 250q-78 0 -136 -34t-116 -101v-674h-172v651q0 84 -11 144t-48 106l147 53q64 -46 72 -157q72 77 148 116t172 39q179 0 264 -129q55 -86 55 -202v-621zM784 1366l-241 -299h-115l-248 299l133 23l176 -215l177 215z" />
    <glyph glyph-name="ncommaaccent.title" unicode="&#xe343;" horiz-adv-x="980" 
d="M897 0h-172v559q0 250 -203 250q-78 0 -136 -34t-116 -101v-674h-172v651q0 84 -11 144t-48 106l147 53q64 -46 72 -157q72 77 148 116t172 39q179 0 264 -129q55 -86 55 -202v-621zM565 -113q-1 -99 -31.5 -201.5t-74.5 -179.5l-109 33q71 160 74 348h141z" />
    <glyph glyph-name="ntilde.title" unicode="&#xe344;" horiz-adv-x="980" 
d="M897 0h-172v559q0 250 -203 250q-78 0 -136 -34t-116 -101v-674h-172v651q0 84 -11 144t-48 106l147 53q64 -46 72 -157q72 77 148 116t172 39q179 0 264 -129q55 -86 55 -202v-621zM721 1337l86 -37q-59 -182 -199 -182q-36 0 -74 16.5t-65.5 36t-62 36t-62.5 16.5
q-69 0 -108 -107l-82 37q30 88 75.5 136t124.5 48q44 0 90.5 -25.5t91 -51t82.5 -25.5q70 0 103 102z" />
    <glyph glyph-name="oacute.title" unicode="&#xe345;" horiz-adv-x="1042" 
d="M801 1337l-301 -270l-107 45l256 272zM995 463q0 -211 -130 -350.5t-343 -139.5t-345 136.5t-132 351.5q0 214 133 352.5t350 138.5q213 0 340 -139t127 -350zM821 457q0 71 -19 135.5t-56 116t-97.5 82t-136.5 30.5q-135 0 -214 -99t-79 -239q0 -101 35.5 -185.5
t108.5 -139t172 -54.5q136 0 211 100.5t75 252.5z" />
    <glyph glyph-name="ocircumflex.title" unicode="&#xe346;" horiz-adv-x="1042" 
d="M578 1389l243 -299l-129 -23l-176 217l-176 -217l-123 23l248 299h113zM995 463q0 -211 -130 -350.5t-343 -139.5t-345 136.5t-132 351.5q0 214 133 352.5t350 138.5q213 0 340 -139t127 -350zM821 457q0 71 -19 135.5t-56 116t-97.5 82t-136.5 30.5q-135 0 -214 -99
t-79 -239q0 -101 35.5 -185.5t108.5 -139t172 -54.5q136 0 211 100.5t75 252.5z" />
    <glyph glyph-name="odieresis.title" unicode="&#xe347;" horiz-adv-x="1042" 
d="M457 1231q0 -46 -30 -76.5t-77 -30.5t-77.5 30t-30.5 77t30.5 76.5t77.5 29.5q46 0 76.5 -30t30.5 -76zM797 1231q0 -46 -30.5 -76.5t-76.5 -30.5q-47 0 -77.5 30t-30.5 77t30.5 76.5t77.5 29.5q46 0 76.5 -30t30.5 -76zM995 463q0 -211 -130 -350.5t-343 -139.5
t-345 136.5t-132 351.5q0 214 133 352.5t350 138.5q213 0 340 -139t127 -350zM821 457q0 71 -19 135.5t-56 116t-97.5 82t-136.5 30.5q-135 0 -214 -99t-79 -239q0 -101 35.5 -185.5t108.5 -139t172 -54.5q136 0 211 100.5t75 252.5z" />
    <glyph glyph-name="oe.title" unicode="&#xe348;" horiz-adv-x="1570" 
d="M1475 219l65 -96q-59 -59 -155 -104.5t-214 -45.5q-201 0 -323 125q-131 -125 -326 -125q-211 0 -344 138t-133 350q0 208 134.5 349.5t342.5 141.5q196 0 328 -123q129 123 307 123q166 0 274.5 -108.5t108.5 -278.5l-63 -84h-598q-3 -152 85.5 -260t237.5 -108
q85 0 155.5 32.5t117.5 73.5zM1391 594q-8 105 -75.5 169t-172.5 64t-172 -63.5t-90 -169.5h510zM764 207q-59 124 -59 254q0 116 53 244q-93 116 -248 116q-135 0 -214 -99t-79 -237q0 -98 34 -182t108 -140.5t176 -56.5q138 0 229 101z" />
    <glyph glyph-name="ograve.title" unicode="&#xe349;" horiz-adv-x="1042" 
d="M520 1067l-303 270l152 47l256 -272zM995 463q0 -211 -130 -350.5t-343 -139.5t-345 136.5t-132 351.5q0 214 133 352.5t350 138.5q213 0 340 -139t127 -350zM821 457q0 71 -19 135.5t-56 116t-97.5 82t-136.5 30.5q-135 0 -214 -99t-79 -239q0 -101 35.5 -185.5
t108.5 -139t172 -54.5q136 0 211 100.5t75 252.5z" />
    <glyph glyph-name="oslash.title" unicode="&#xe34a;" horiz-adv-x="1040" 
d="M188 -74l-125 27l117 153q-135 135 -135 355q0 214 133 352.5t350 138.5q142 0 246 -63l78 100l125 -24l-113 -148q63 -66 97 -158t34 -196q0 -211 -130 -350.5t-343 -139.5q-141 0 -250 64zM219 483q0 -140 64 -241l401 526q-75 53 -172 53q-135 0 -214 -99t-79 -239z
M821 457q0 130 -59 225l-400 -524q73 -54 173 -54q136 0 211 100.5t75 252.5z" />
    <glyph glyph-name="obreve.title" unicode="&#xe34b;" horiz-adv-x="1042" 
d="M803 1372q-11 -142 -81 -221.5t-206 -79.5q-127 0 -196 77.5t-78 221.5l110 14q15 -93 53.5 -144.5t112.5 -51.5q82 0 119.5 48.5t56.5 147.5zM995 463q0 -211 -130 -350.5t-343 -139.5t-345 136.5t-132 351.5q0 214 133 352.5t350 138.5q213 0 340 -139t127 -350z
M821 457q0 71 -19 135.5t-56 116t-97.5 82t-136.5 30.5q-135 0 -214 -99t-79 -239q0 -101 35.5 -185.5t108.5 -139t172 -54.5q136 0 211 100.5t75 252.5z" />
    <glyph glyph-name="ohungarumlaut.title" unicode="&#xe34c;" horiz-adv-x="1042" 
d="M995 463q0 -211 -130 -350.5t-343 -139.5t-345 136.5t-132 351.5q0 214 133 352.5t350 138.5q213 0 340 -139t127 -350zM821 457q0 71 -19 135.5t-56 116t-97.5 82t-136.5 30.5q-135 0 -214 -99t-79 -239q0 -101 35.5 -185.5t108.5 -139t172 -54.5q136 0 211 100.5
t75 252.5zM664 1337l-283 -268l-100 43l231 272zM999 1337l-282 -268l-101 43l232 272z" />
    <glyph glyph-name="omacron.title" unicode="&#xe34d;" horiz-adv-x="1042" 
d="M995 463q0 -211 -130 -350.5t-343 -139.5t-345 136.5t-132 351.5q0 214 133 352.5t350 138.5q213 0 340 -139t127 -350zM821 457q0 71 -19 135.5t-56 116t-97.5 82t-136.5 30.5q-135 0 -214 -99t-79 -239q0 -101 35.5 -185.5t108.5 -139t172 -54.5q136 0 211 100.5
t75 252.5zM782 1171h-526v113h526v-113z" />
    <glyph glyph-name="otilde.title" unicode="&#xe34e;" horiz-adv-x="1042" 
d="M760 1327l86 -37q-59 -182 -199 -182q-36 0 -74 16t-65.5 36t-62 36t-62.5 16q-70 0 -109 -106l-81 37q30 88 75.5 136t124.5 48q53 0 136 -51t128 -51q70 0 103 102zM995 463q0 -211 -130 -350.5t-343 -139.5t-345 136.5t-132 351.5q0 214 133 352.5t350 138.5
q213 0 340 -139t127 -350zM821 457q0 71 -19 135.5t-56 116t-97.5 82t-136.5 30.5q-135 0 -214 -99t-79 -239q0 -101 35.5 -185.5t108.5 -139t172 -54.5q136 0 211 100.5t75 252.5z" />
    <glyph glyph-name="racute.title" unicode="&#xe34f;" horiz-adv-x="665" 
d="M672 913l-39 -149q-71 31 -123 31q-39 0 -74 -15.5t-67 -47t-51.5 -55t-47.5 -63.5v-614h-172v651q0 84 -11 144t-48 106l147 53q74 -55 74 -204q26 42 50 72.5t57 62.5t73 49.5t84 17.5q68 0 148 -39zM543 1337l-301 -270l-107 45l256 272z" />
    <glyph glyph-name="rcaron.title" unicode="&#xe350;" horiz-adv-x="665" 
d="M672 913l-39 -149q-71 31 -123 31q-39 0 -74 -15.5t-67 -47t-51.5 -55t-47.5 -63.5v-614h-172v651q0 84 -11 144t-48 106l147 53q74 -55 74 -204q26 42 50 72.5t57 62.5t73 49.5t84 17.5q68 0 148 -39zM573 1366l-241 -299h-115l-248 299l133 23l177 -215l176 215z" />
    <glyph glyph-name="rcommaaccent.title" unicode="&#xe351;" horiz-adv-x="665" 
d="M672 913l-39 -149q-71 31 -123 31q-39 0 -74 -15.5t-67 -47t-51.5 -55t-47.5 -63.5v-614h-172v651q0 84 -11 144t-48 106l147 53q74 -55 74 -204q26 42 50 72.5t57 62.5t73 49.5t84 17.5q68 0 148 -39zM256 -113q-1 -99 -31.5 -201.5t-74.5 -179.5l-109 33q71 160 74 348
h141z" />
    <glyph glyph-name="sacute.title" unicode="&#xe352;" horiz-adv-x="692" 
d="M659 256q0 -90 -49.5 -156t-124.5 -96.5t-163 -30.5q-192 0 -322 121l70 119q114 -109 247 -109q75 0 119.5 36t44.5 104q0 41 -23 71.5t-60 51t-81.5 39.5t-89 42t-81.5 52t-60 76t-23 108q0 123 89 195.5t219 72.5q135 0 264 -82l-51 -127q-57 39 -104.5 58.5
t-102.5 19.5q-68 0 -106 -33.5t-38 -89.5q0 -39 23.5 -68.5t61 -49.5t83 -39t91 -42.5t83 -53t61 -78t23.5 -111.5zM657 1337l-301 -270l-106 45l256 272z" />
    <glyph glyph-name="tcaron.title" unicode="&#xe353;" horiz-adv-x="684" 
d="M694 37q-114 -57 -245 -57q-130 0 -192 67.5t-62 202.5v549h-193v106l53 4q113 9 152.5 46.5t58.5 146.5l8 94h88v-270h261v-127h-261v-486q0 -41 2 -66t10 -53t22.5 -42.5t41.5 -24.5t66 -10t90 13t76 24zM655 1440q-3 -114 -32.5 -221.5t-69.5 -178.5l-109 35
q64 148 70 365h141z" />
    <glyph glyph-name="tcedilla.title" unicode="&#xe354;" horiz-adv-x="671" 
d="M522 -229q0 -80 -62.5 -125t-152.5 -45q-39 0 -73.5 4t-49.5 8l-14 4l18 90q50 -18 101 -18q49 0 74.5 23t25.5 57q0 31 -28.5 48t-71.5 17l-51 -4l63 180q-106 59 -106 240v549h-193v106l53 4q113 9 152.5 46.5t58.5 146.5l8 94h88v-270h261v-127h-261v-486q0 -41 2 -66
t10 -53t22.5 -42.5t41.5 -24.5t66 -10t90 13t76 24l24 -117q-114 -57 -245 -57q-28 0 -64 4l-31 -90q13 2 27 2q66 0 103.5 -34t37.5 -91z" />
    <glyph glyph-name="tcommaaccent.title" unicode="&#xe355;" horiz-adv-x="671" 
d="M440 -113q-1 -99 -31.5 -201.5t-74.5 -179.5l-109 33q71 160 74 348h141zM694 37q-114 -57 -245 -57q-130 0 -192 67.5t-62 202.5v549h-193v106l53 4q113 9 152.5 46.5t58.5 146.5l8 94h88v-270h261v-127h-261v-486q0 -41 2 -66t10 -53t22.5 -42.5t41.5 -24.5t66 -10
t90 13t76 24z" />
    <glyph glyph-name="uacute.title" unicode="&#xe356;" horiz-adv-x="997" 
d="M772 1337l-301 -270l-106 45l256 272zM1001 94l-22 -108q-43 -13 -88 -13q-155 0 -174 136q-68 -65 -137.5 -100.5t-159.5 -35.5q-330 0 -330 340v613h170v-578q0 -231 201 -231q74 0 125 27t114 87v695h172v-684q0 -32 1 -50t6 -40.5t14.5 -34t27.5 -19.5t44 -8z" />
    <glyph glyph-name="ucircumflex.title" unicode="&#xe357;" horiz-adv-x="997" 
d="M543 1389l243 -299l-129 -23l-176 217l-176 -217l-123 23l248 299h113zM1001 94l-22 -108q-43 -13 -88 -13q-155 0 -174 136q-68 -65 -137.5 -100.5t-159.5 -35.5q-330 0 -330 340v613h170v-578q0 -231 201 -231q74 0 125 27t114 87v695h172v-684q0 -32 1 -50t6 -40.5
t14.5 -34t27.5 -19.5t44 -8z" />
    <glyph glyph-name="udieresis.title" unicode="&#xe358;" horiz-adv-x="997" 
d="M416 1231q0 -46 -30 -76.5t-77 -30.5t-77.5 30t-30.5 77t30.5 76.5t77.5 29.5q46 0 76.5 -30t30.5 -76zM756 1231q0 -46 -30.5 -76.5t-76.5 -30.5q-47 0 -77.5 30t-30.5 77t30.5 76.5t77.5 29.5q46 0 76.5 -30t30.5 -76zM1001 94l-22 -108q-43 -13 -88 -13
q-155 0 -174 136q-68 -65 -137.5 -100.5t-159.5 -35.5q-330 0 -330 340v613h170v-578q0 -231 201 -231q74 0 125 27t114 87v695h172v-684q0 -32 1 -50t6 -40.5t14.5 -34t27.5 -19.5t44 -8z" />
    <glyph glyph-name="ugrave.title" unicode="&#xe359;" horiz-adv-x="997" 
d="M494 1067l-304 270l152 47l256 -272zM1001 94l-22 -108q-43 -13 -88 -13q-155 0 -174 136q-68 -65 -137.5 -100.5t-159.5 -35.5q-330 0 -330 340v613h170v-578q0 -231 201 -231q74 0 125 27t114 87v695h172v-684q0 -32 1 -50t6 -40.5t14.5 -34t27.5 -19.5t44 -8z" />
    <glyph glyph-name="uhungarumlaut.title" unicode="&#xe35a;" horiz-adv-x="997" 
d="M1001 94l-22 -108q-43 -13 -88 -13q-155 0 -174 136q-68 -65 -137.5 -100.5t-159.5 -35.5q-330 0 -330 340v613h170v-578q0 -231 201 -231q74 0 125 27t114 87v695h172v-684q0 -32 1 -50t6 -40.5t14.5 -34t27.5 -19.5t44 -8zM596 1337l-283 -268l-100 43l231 272z
M932 1337l-283 -268l-100 43l231 272z" />
    <glyph glyph-name="umacron.title" unicode="&#xe35b;" horiz-adv-x="997" 
d="M1001 94l-22 -108q-43 -13 -88 -13q-155 0 -174 136q-68 -65 -137.5 -100.5t-159.5 -35.5q-330 0 -330 340v613h170v-578q0 -231 201 -231q74 0 125 27t114 87v695h172v-684q0 -32 1 -50t6 -40.5t14.5 -34t27.5 -19.5t44 -8zM756 1171h-527v113h527v-113z" />
    <glyph glyph-name="uogonek.title" unicode="&#xe35c;" horiz-adv-x="997" 
d="M1001 94l-22 -108q-7 -4 -18 -11.5t-39 -31t-50 -47t-39.5 -56t-17.5 -61.5q0 -36 25 -54t57 -18q25 0 48 4.5t33 9.5l11 5l21 -82q-62 -35 -158 -35q-75 0 -127.5 32.5t-52.5 100.5q0 42 20.5 82t54 70t59 48t52.5 33q-124 13 -141 134q-68 -65 -137.5 -100.5
t-159.5 -35.5q-330 0 -330 340v613h170v-578q0 -231 201 -231q74 0 125 27t114 87v695h172v-684q0 -32 1 -50t6 -40.5t14.5 -34t27.5 -19.5t44 -8z" />
    <glyph glyph-name="uring.title" unicode="&#xe35d;" horiz-adv-x="997" 
d="M1001 94l-22 -108q-43 -13 -88 -13q-155 0 -174 136q-68 -65 -137.5 -100.5t-159.5 -35.5q-330 0 -330 340v613h170v-578q0 -231 201 -231q74 0 125 27t114 87v695h172v-684q0 -32 1 -50t6 -40.5t14.5 -34t27.5 -19.5t44 -8zM285 1237q0 82 58.5 135t139.5 53
q82 0 142.5 -53t60.5 -135t-60.5 -135t-142.5 -53q-84 0 -141 52t-57 136zM373 1237q0 -49 32 -81t78 -32q49 0 81 29.5t32 83.5q0 50 -32.5 81.5t-80.5 31.5q-49 0 -79.5 -30t-30.5 -83z" />
    <glyph glyph-name="scaron.title" unicode="&#xe35e;" horiz-adv-x="692" 
d="M659 256q0 -90 -49.5 -156t-124.5 -96.5t-163 -30.5q-192 0 -322 121l70 119q114 -109 247 -109q75 0 119.5 36t44.5 104q0 41 -23 71.5t-60 51t-81.5 39.5t-89 42t-81.5 52t-60 76t-23 108q0 123 89 195.5t219 72.5q135 0 264 -82l-51 -127q-57 39 -104.5 58.5
t-102.5 19.5q-68 0 -106 -33.5t-38 -89.5q0 -39 23.5 -68.5t61 -49.5t83 -39t91 -42.5t83 -53t61 -78t23.5 -111.5zM649 1366l-221 -299h-115l-227 299l133 23l156 -215l155 215z" />
    <glyph glyph-name="scedilla.title" unicode="&#xe35f;" horiz-adv-x="692" 
d="M514 -250q0 -80 -62.5 -125t-152.5 -45q-39 0 -73.5 4t-49.5 8l-14 5l18 90q50 -19 101 -19q49 0 74.5 23t25.5 57q0 31 -28.5 48.5t-71.5 17.5l-52 -4l58 165q-169 10 -287 119l70 119q114 -109 247 -109q75 0 119.5 36t44.5 104q0 41 -23 71.5t-60 51t-81.5 39.5
t-89 42t-81.5 52t-60 76t-23 108q0 123 89 195.5t219 72.5q135 0 264 -82l-51 -127q-57 39 -104.5 58.5t-102.5 19.5q-68 0 -106 -33.5t-38 -89.5q0 -39 23.5 -68.5t61 -49.5t83 -39t91 -42.5t83 -53t61 -78t23.5 -111.5q0 -119 -79.5 -191t-198.5 -88l-35 -104q13 2 27 2
q66 0 103.5 -34t37.5 -91z" />
    <glyph glyph-name="scommaaccent.title" unicode="&#xe360;" horiz-adv-x="692" 
d="M659 256q0 -90 -49.5 -156t-124.5 -96.5t-163 -30.5q-192 0 -322 121l70 119q114 -109 247 -109q75 0 119.5 36t44.5 104q0 41 -23 71.5t-60 51t-81.5 39.5t-89 42t-81.5 52t-60 76t-23 108q0 123 89 195.5t219 72.5q135 0 264 -82l-51 -127q-57 39 -104.5 58.5
t-102.5 19.5q-68 0 -106 -33.5t-38 -89.5q0 -39 23.5 -68.5t61 -49.5t83 -39t91 -42.5t83 -53t61 -78t23.5 -111.5zM406 -113q-1 -99 -31.5 -201t-75.5 -180l-109 33q71 160 74 348h142z" />
    <glyph glyph-name="thorn.title" unicode="&#xe361;" horiz-adv-x="995" 
d="M950 483q0 -137 -56 -252.5t-163.5 -186.5t-245.5 -71q-65 0 -112.5 10t-110.5 35v-458h-172v1853h172v-551q121 90 266 90q129 0 226.5 -65t146.5 -170.5t49 -233.5zM774 471q0 90 -33 166.5t-102 126t-162 49.5q-104 0 -215 -70v-577q95 -62 207 -62q143 0 224 107.5
t81 259.5z" />
    <glyph glyph-name="yacute.title" unicode="&#xe362;" horiz-adv-x="882" 
d="M881 905l-424 -1032q-30 -73 -61.5 -127t-76.5 -105t-106 -77.5t-135 -26.5q-62 0 -129 19l26 127q45 -15 95 -15q41 0 75 14.5t57 35t46 57.5t36 66.5t33 78.5l39 98l-352 887l168 33l270 -715l279 715zM733 1337l-301 -270l-106 45l256 272z" />
    <glyph glyph-name="ydieresis.title" unicode="&#xe363;" horiz-adv-x="882" 
d="M881 905l-424 -1032q-30 -73 -61.5 -127t-76.5 -105t-106 -77.5t-135 -26.5q-62 0 -129 19l26 127q45 -15 95 -15q41 0 75 14.5t57 35t46 57.5t36 66.5t33 78.5l39 98l-352 887l168 33l270 -715l279 715zM381 1231q0 -46 -30 -76.5t-77 -30.5t-77.5 30t-30.5 77
t30.5 76.5t77.5 29.5q46 0 76.5 -30t30.5 -76zM721 1231q0 -46 -30.5 -76.5t-76.5 -30.5q-47 0 -77.5 30t-30.5 77t30.5 76.5t77.5 29.5q46 0 76.5 -30t30.5 -76z" />
    <glyph glyph-name="zacute.title" unicode="&#xe364;" horiz-adv-x="815" 
d="M696 1337l-301 -270l-106 45l256 272zM809 129l-27 -129h-751l-21 70l533 729h-484v127h691l22 -68l-530 -729h567z" />
    <glyph glyph-name="zcaron.title" unicode="&#xe365;" horiz-adv-x="815" 
d="M721 1366l-242 -299h-114l-248 299l133 23l176 -215l176 215zM809 129l-27 -129h-751l-21 70l533 729h-484v127h691l22 -68l-530 -729h567z" />
    <glyph glyph-name="zdotaccent.title" unicode="&#xe366;" horiz-adv-x="815" 
d="M522 1239q0 -46 -29 -76t-75 -30q-49 0 -79 29.5t-30 76.5t30 77t77 30q46 0 76 -30.5t30 -76.5zM809 129l-27 -129h-751l-21 70l533 729h-484v127h691l22 -68l-530 -729h567z" />
    <glyph glyph-name="Adieresis.title.alt" unicode="&#xe367;" horiz-adv-x="1234" 
d="M330 1403q44 0 73 -29.5t29 -73.5q0 -46 -29 -75t-73 -29q-47 0 -76 29t-29 75q0 45 29 74t76 29zM909 1403q47 0 77 -29t30 -74q0 -46 -30 -75t-77 -29q-44 0 -73 29t-29 75q0 44 29 73.5t73 29.5zM1065 0l-172 430h-569l-172 -430h-177l578 1382h131l576 -1382h-195z
M612 1141l-227 -566h451z" />
    <glyph glyph-name="Aring.title.alt" unicode="&#xe368;" horiz-adv-x="1234" 
d="M381 535h455l-226 528zM899 387h-582l-165 -387h-177l494 1112q-59 59 -59 141t60 137.5t146 55.5q89 0 148 -56t59 -141q0 -86 -67 -137q79 -186 249 -550.5t252 -561.5h-192zM614 1366q-49 0 -79.5 -32t-30.5 -83q0 -47 31.5 -79.5t82.5 -32.5q49 0 80 31t31 81
t-31.5 82.5t-83.5 32.5z" />
    <glyph glyph-name="Odieresis.title.alt" unicode="&#xe369;" horiz-adv-x="1482" 
d="M283 1395q45 0 75.5 -30.5t30.5 -74.5q0 -46 -29 -76t-75 -30t-76.5 29.5t-30.5 76.5q0 45 30 75t75 30zM1174 1395q46 0 76 -30.5t30 -74.5q0 -46 -30 -76t-74 -30q-48 0 -78.5 29.5t-30.5 76.5q0 46 30.5 75.5t76.5 29.5zM1438 684q0 -207 -86 -368t-246 -252t-369 -91
q-201 0 -360 94t-245.5 256.5t-86.5 362.5q0 288 184 485q24 -12 56 -12q58 0 97 42.5t32 111.5q154 80 344 80q154 0 291 -64q-7 -21 -7 -43q0 -54 38 -90.5t96 -36.5q41 0 77 25q89 -96 137 -225t48 -275zM1245 664q0 112 -35 214.5t-99 181.5t-162.5 126t-217.5 47
q-150 0 -263 -68.5t-171.5 -186.5t-58.5 -267q0 -117 36.5 -221.5t102.5 -183.5t166 -125t221 -46q112 0 204 41.5t152 114t92.5 168t32.5 205.5z" />
    <glyph glyph-name="Udieresis.title.alt" unicode="&#xe36a;" horiz-adv-x="1306" 
d="M1210 1366v-817q0 -150 -29 -256.5t-118 -186.5q-150 -135 -412 -135q-339 0 -477 199q-84 116 -84 381v815h182v-815q0 -118 19.5 -197t77.5 -133q102 -96 286 -96q194 0 289 104q84 91 84 322v815h182zM954 1313q0 -47 -30 -77t-76 -30q-47 0 -78 30t-31 77q0 46 31 75
t78 29q46 0 76 -30t30 -74zM563 1313q0 -47 -30 -77t-76 -30q-47 0 -78 30t-31 77q0 46 31 75t78 29q46 0 76 -30t30 -74z" />
    <glyph glyph-name="one.title" unicode="&#xe36b;" horiz-adv-x="671" 
d="M573 0h-174v1114q-147 -111 -333 -211l-70 125q247 132 520 326l57 -29v-1325z" />
    <glyph glyph-name="two.title" unicode="&#xe36c;" horiz-adv-x="864" 
d="M834 150l-29 -150h-838l-24 90q169 156 362 361q132 140 179 201q147 185 147 321q0 105 -65.5 164t-186.5 59q-49 0 -95 -13.5t-88 -41t-58 -40t-48 -40.5l-74 115q63 69 167.5 122.5t228.5 53.5q172 0 287.5 -100t115.5 -267q0 -61 -23 -128t-51 -117.5t-81.5 -117.5
t-85 -101.5t-89.5 -96.5q-113 -121 -280 -274h629z" />
    <glyph glyph-name="three.title" unicode="&#xe36d;" horiz-adv-x="886" 
d="M850 369q0 -121 -65 -213t-167.5 -137.5t-222.5 -45.5q-246 0 -420 160l78 119q140 -137 326 -137q119 0 198.5 66t79.5 184q0 121 -86.5 187t-218.5 66h-145v132h227q7 2 19.5 6.5t43.5 23t54.5 42.5t43 67.5t19.5 95.5q0 102 -72 160.5t-175 58.5q-140 0 -254 -114
l-78 110q165 152 373 152q103 0 189 -38t141 -116.5t55 -183.5q0 -194 -201 -305q125 -40 191.5 -126.5t66.5 -213.5z" />
    <glyph glyph-name="four.title" unicode="&#xe36e;" horiz-adv-x="1052" 
d="M1042 508l-18 -133h-201v-375h-170v375h-608l-31 121l709 856l100 -27v-817h219zM655 508v573l-469 -573h469z" />
    <glyph glyph-name="five.title" unicode="&#xe36f;" horiz-adv-x="843" 
d="M811 420q0 -201 -136.5 -324t-340.5 -123q-210 0 -371 109l60 131q140 -96 294 -96q135 0 222.5 82.5t87.5 216.5q0 75 -30 133t-79.5 93t-118.5 56.5t-142 28t-155 2.5l101 596h577v-149h-436l-57 -324q106 -1 197 -25.5t166 -74t118 -135t43 -197.5z" />
    <glyph glyph-name="six.title" unicode="&#xe370;" horiz-adv-x="995" 
d="M961 422q0 -197 -129 -323t-326 -126q-111 0 -200.5 41.5t-146 113.5t-86.5 166t-30 202q0 156 55.5 298t153.5 252.5t223.5 195t272.5 140.5l112 -98q-217 -79 -379.5 -229t-218.5 -355q67 71 135.5 105.5t161.5 34.5q178 0 290 -119.5t112 -298.5zM788 412
q0 120 -72 207.5t-190 87.5q-95 0 -167 -45.5t-136 -131.5q-6 -34 -6 -69q0 -85 33 -162t100.5 -128.5t155.5 -51.5q131 0 206.5 81t75.5 212z" />
    <glyph glyph-name="seven.title" unicode="&#xe371;" horiz-adv-x="815" 
d="M870 1249q-315 -606 -614 -1274l-180 43q304 651 583 1158h-696v149h877z" />
    <glyph glyph-name="eight.title" unicode="&#xe372;" horiz-adv-x="983" 
d="M948 354q0 -91 -38 -165t-102 -120.5t-144.5 -71t-167.5 -24.5q-69 0 -134.5 14.5t-124.5 45t-103 74t-69.5 106t-25.5 135.5q0 246 291 354q-113 50 -174.5 122t-61.5 184q0 108 59.5 188t150.5 118t198 38q102 0 189 -36t143.5 -113t56.5 -181q0 -117 -61.5 -191
t-176.5 -118q72 -31 120.5 -60t91 -70.5t63 -98t20.5 -130.5zM729 1016q0 95 -66.5 152t-162.5 57q-97 0 -164.5 -52t-67.5 -147q0 -42 17.5 -78.5t40 -60.5t63 -49t67 -38t72.5 -32q45 21 78 42.5t62.5 51t45 68.5t15.5 86zM762 342q0 36 -9 68t-22 56t-38.5 47t-45.5 38
t-57.5 34t-60 29t-66.5 29q-53 -22 -94 -46.5t-78.5 -59.5t-57.5 -82t-20 -103q0 -115 81 -184.5t198 -69.5q119 0 194.5 63.5t75.5 180.5z" />
    <glyph glyph-name="nine.title" unicode="&#xe373;" horiz-adv-x="983" 
d="M938 831q0 -200 -91.5 -382t-243.5 -311t-341 -195l-133 88q221 91 381 235.5t215 345.5q-128 -125 -295 -125q-171 0 -281 117.5t-110 288.5q0 192 130.5 325.5t322.5 133.5q108 0 194.5 -42.5t140.5 -115.5t82.5 -166t28.5 -197zM766 834q0 69 -17 132t-50 116.5
t-89.5 85.5t-128.5 32q-121 0 -196.5 -85.5t-75.5 -207.5q0 -118 74 -203.5t192 -85.5q87 0 153 38.5t134 115.5q4 28 4 62z" />
    <glyph glyph-name="zero.title" unicode="&#xe374;" horiz-adv-x="1034" 
d="M983 668q0 -95 -13 -186t-46.5 -185.5t-85 -164.5t-135.5 -114.5t-191 -44.5q-106 0 -189 43t-133 110.5t-83 159.5t-45.5 181.5t-12.5 185.5q0 68 7.5 135.5t24.5 137.5t42.5 131.5t64.5 116t88 93.5t115.5 62t143.5 23q101 0 180.5 -44.5t128.5 -114t81.5 -163
t45 -182.5t12.5 -180zM801 659q0 59 -7 123.5t-26.5 142t-50.5 137t-84 100t-121 40.5q-58 0 -104.5 -25.5t-76 -70t-50.5 -96.5t-32 -113t-15.5 -112t-4.5 -101q0 -44 3 -89t11.5 -102t21.5 -107t36 -99t53 -84t74 -56.5t96 -21.5q57 0 103.5 27t75.5 74t49.5 101
t30.5 117.5t14 114.5t4 100z" />
    <glyph glyph-name="dollar.title" unicode="&#xe375;" horiz-adv-x="833" 
d="M356 815v361q-72 -15 -116.5 -62.5t-44.5 -114.5q0 -58 41.5 -101t119.5 -83zM477 588v-418q83 16 131.5 67.5t48.5 135.5q0 71 -47.5 121t-132.5 94zM477 1178v-420q44 -20 73 -34t69.5 -37t66.5 -43.5t55.5 -50t46.5 -60.5t28 -71t11 -85q0 -143 -93.5 -236
t-256.5 -116v-203h-121v198q-115 4 -199.5 36t-187.5 102l31 161q188 -141 356 -153v477q-59 26 -97 45.5t-86 52.5t-75.5 66.5t-47 82.5t-19.5 107q0 130 90.5 216t234.5 104v184h121v-180q192 -12 334 -111l-68 -135q-135 93 -266 103z" />
    <glyph glyph-name="cent.title" unicode="&#xe376;" horiz-adv-x="888" 
d="M463 141v662q-108 -26 -171 -115t-63 -217t62.5 -215t171.5 -115zM584 811v-682q66 4 125.5 26t93.5 44l59 -125q-113 -80 -278 -97v-184h-121v184q-187 22 -299.5 151t-112.5 333q0 193 114 330.5t298 162.5v179h121v-177q70 -5 147 -31t135 -65l-69 -121
q-1 1 -10.5 6.5t-15.5 9.5t-19 11t-24 11.5t-28.5 10.5t-34 10.5t-38 8t-43.5 4.5z" />
    </font>
</defs>
</svg>
